  0
SECTION
  2
HEADER
  9
$ACADVER
  1
AC1015
  9
$ACADMAINTVER
 70
     6
  9
$DWGCODEPAGE
  3
ANSI_1252
  9
$INSBASE
 10
0.0
 20
0.0
 30
0.0
  9
$EXTMIN
 10
-133.289113764188
 20
124.793329709917
 30
0.0
  9
$EXTMAX
 10
450.710886235812
 20
534.793329709917
 30
0.0
  9
$LIMMIN
 10
0.0
 20
0.0
  9
$LIMMAX
 10
12.0
 20
9.0
  9
$ORTHOMODE
 70
     0
  9
$REGENMODE
 70
     1
  9
$FILLMODE
 70
     1
  9
$QTEXTMODE
 70
     0
  9
$MIRRTEXT
 70
     1
  9
$LTSCALE
 40
1.0
  9
$ATTMODE
 70
     1
  9
$TEXTSIZE
 40
0.2
  9
$TRACEWID
 40
0.05
  9
$TEXTSTYLE
  7
Standard
  9
$CLAYER
  8
0
  9
$CELTYPE
  6
ByLayer
  9
$CECOLOR
 62
   256
  9
$CELTSCALE
 40
1.0
  9
$DISPSILH
 70
     0
  9
$DIMSCALE
 40
1.0
  9
$DIMASZ
 40
0.18
  9
$DIMEXO
 40
0.0625
  9
$DIMDLI
 40
0.38
  9
$DIMRND
 40
0.0
  9
$DIMDLE
 40
0.0
  9
$DIMEXE
 40
0.18
  9
$DIMTP
 40
0.0
  9
$DIMTM
 40
0.0
  9
$DIMTXT
 40
0.18
  9
$DIMCEN
 40
0.09
  9
$DIMTSZ
 40
0.0
  9
$DIMTOL
 70
     0
  9
$DIMLIM
 70
     0
  9
$DIMTIH
 70
     1
  9
$DIMTOH
 70
     1
  9
$DIMSE1
 70
     0
  9
$DIMSE2
 70
     0
  9
$DIMTAD
 70
     0
  9
$DIMZIN
 70
     0
  9
$DIMBLK
  1

  9
$DIMASO
 70
     1
  9
$DIMSHO
 70
     1
  9
$DIMPOST
  1

  9
$DIMAPOST
  1

  9
$DIMALT
 70
     0
  9
$DIMALTD
 70
     2
  9
$DIMALTF
 40
25.4
  9
$DIMLFAC
 40
1.0
  9
$DIMTOFL
 70
     0
  9
$DIMTVP
 40
0.0
  9
$DIMTIX
 70
     0
  9
$DIMSOXD
 70
     0
  9
$DIMSAH
 70
     0
  9
$DIMBLK1
  1

  9
$DIMBLK2
  1

  9
$DIMSTYLE
  2
Standard
  9
$DIMCLRD
 70
     0
  9
$DIMCLRE
 70
     0
  9
$DIMCLRT
 70
     0
  9
$DIMTFAC
 40
1.0
  9
$DIMGAP
 40
0.09
  9
$DIMJUST
 70
     0
  9
$DIMSD1
 70
     0
  9
$DIMSD2
 70
     0
  9
$DIMTOLJ
 70
     1
  9
$DIMTZIN
 70
     0
  9
$DIMALTZ
 70
     0
  9
$DIMALTTZ
 70
     0
  9
$DIMUPT
 70
     0
  9
$DIMDEC
 70
     4
  9
$DIMTDEC
 70
     4
  9
$DIMALTU
 70
     2
  9
$DIMALTTD
 70
     2
  9
$DIMTXSTY
  7
Standard
  9
$DIMAUNIT
 70
     0
  9
$DIMADEC
 70
     0
  9
$DIMALTRND
 40
0.0
  9
$DIMAZIN
 70
     0
  9
$DIMDSEP
 70
    46
  9
$DIMATFIT
 70
     3
  9
$DIMFRAC
 70
     0
  9
$DIMLDRBLK
  1

  9
$DIMLUNIT
 70
     2
  9
$DIMLWD
 70
    -2
  9
$DIMLWE
 70
    -2
  9
$DIMTMOVE
 70
     0
  9
$LUNITS
 70
     2
  9
$LUPREC
 70
     4
  9
$SKETCHINC
 40
0.1
  9
$FILLETRAD
 40
0.5
  9
$AUNITS
 70
     0
  9
$AUPREC
 70
     0
  9
$MENU
  1
.
  9
$ELEVATION
 40
0.0
  9
$PELEVATION
 40
0.0
  9
$THICKNESS
 40
0.0
  9
$LIMCHECK
 70
     0
  9
$CHAMFERA
 40
0.5
  9
$CHAMFERB
 40
0.5
  9
$CHAMFERC
 40
1.0
  9
$CHAMFERD
 40
0.0
  9
$SKPOLY
 70
     0
  9
$TDCREATE
 40
2455250.584091018
  9
$TDUCREATE
 40
2455250.542424352
  9
$TDUPDATE
 40
2455250.58409103
  9
$TDUUPDATE
 40
2455250.542424364
  9
$TDINDWG
 40
0.0000000116
  9
$TDUSRTIMER
 40
0.0000000116
  9
$USRTIMER
 70
     1
  9
$ANGBASE
 50
0.0
  9
$ANGDIR
 70
     0
  9
$PDMODE
 70
     0
  9
$PDSIZE
 40
0.0
  9
$PLINEWID
 40
0.0
  9
$SPLFRAME
 70
     0
  9
$SPLINETYPE
 70
     6
  9
$SPLINESEGS
 70
     8
  9
$HANDSEED
  5
4EB
  9
$SURFTAB1
 70
     6
  9
$SURFTAB2
 70
     6
  9
$SURFTYPE
 70
     6
  9
$SURFU
 70
     6
  9
$SURFV
 70
     6
  9
$UCSBASE
  2

  9
$UCSNAME
  2

  9
$UCSORG
 10
0.0
 20
0.0
 30
0.0
  9
$UCSXDIR
 10
1.0
 20
0.0
 30
0.0
  9
$UCSYDIR
 10
0.0
 20
1.0
 30
0.0
  9
$UCSORTHOREF
  2

  9
$UCSORTHOVIEW
 70
     0
  9
$UCSORGTOP
 10
0.0
 20
0.0
 30
0.0
  9
$UCSORGBOTTOM
 10
0.0
 20
0.0
 30
0.0
  9
$UCSORGLEFT
 10
0.0
 20
0.0
 30
0.0
  9
$UCSORGRIGHT
 10
0.0
 20
0.0
 30
0.0
  9
$UCSORGFRONT
 10
0.0
 20
0.0
 30
0.0
  9
$UCSORGBACK
 10
0.0
 20
0.0
 30
0.0
  9
$PUCSBASE
  2

  9
$PUCSNAME
  2

  9
$PUCSORG
 10
0.0
 20
0.0
 30
0.0
  9
$PUCSXDIR
 10
1.0
 20
0.0
 30
0.0
  9
$PUCSYDIR
 10
0.0
 20
1.0
 30
0.0
  9
$PUCSORTHOREF
  2

  9
$PUCSORTHOVIEW
 70
     0
  9
$PUCSORGTOP
 10
0.0
 20
0.0
 30
0.0
  9
$PUCSORGBOTTOM
 10
0.0
 20
0.0
 30
0.0
  9
$PUCSORGLEFT
 10
0.0
 20
0.0
 30
0.0
  9
$PUCSORGRIGHT
 10
0.0
 20
0.0
 30
0.0
  9
$PUCSORGFRONT
 10
0.0
 20
0.0
 30
0.0
  9
$PUCSORGBACK
 10
0.0
 20
0.0
 30
0.0
  9
$USERI1
 70
     0
  9
$USERI2
 70
     0
  9
$USERI3
 70
     0
  9
$USERI4
 70
     0
  9
$USERI5
 70
     0
  9
$USERR1
 40
15.5
  9
$USERR2
 40
0.0
  9
$USERR3
 40
0.0
  9
$USERR4
 40
0.0
  9
$USERR5
 40
0.0
  9
$WORLDVIEW
 70
     1
  9
$SHADEDGE
 70
     3
  9
$SHADEDIF
 70
    70
  9
$TILEMODE
 70
     1
  9
$MAXACTVP
 70
    64
  9
$PINSBASE
 10
0.0
 20
0.0
 30
0.0
  9
$PLIMCHECK
 70
     0
  9
$PEXTMIN
 10
1.00000000000000E+20
 20
1.00000000000000E+20
 30
1.00000000000000E+20
  9
$PEXTMAX
 10
-1.00000000000000E+20
 20
-1.00000000000000E+20
 30
-1.00000000000000E+20
  9
$PLIMMIN
 10
0.0
 20
0.0
  9
$PLIMMAX
 10
12.0
 20
9.0
  9
$UNITMODE
 70
     0
  9
$VISRETAIN
 70
     1
  9
$PLINEGEN
 70
     0
  9
$PSLTSCALE
 70
     1
  9
$TREEDEPTH
 70
  3020
  9
$CMLSTYLE
  2
Standard
  9
$CMLJUST
 70
     0
  9
$CMLSCALE
 40
1.0
  9
$PROXYGRAPHICS
 70
     1
  9
$MEASUREMENT
 70
     1
  9
$CELWEIGHT
370
    -1
  9
$ENDCAPS
280
     0
  9
$JOINSTYLE
280
     0
  9
$LWDISPLAY
290
     0
  9
$INSUNITS
 70
     1
  9
$HYPERLINKBASE
  1

  9
$STYLESHEET
  1

  9
$XEDIT
290
     1
  9
$CEPSNTYPE
380
     0
  9
$PSTYLEMODE
290
     1
  9
$FINGERPRINTGUID
  2
{91F76297-4B91-4569-B1A4-08DDF35EB90A}
  9
$VERSIONGUID
  2
{FAEB1C32-E019-11D5-929B-00C0DF256EC4}
  9
$EXTNAMES
290
     1
  9
$PSVPSCALE
 40
0.0
  9
$OLESTARTUP
290
     0
  0
ENDSEC
  0
SECTION
  2
CLASSES
  0
CLASS
  1
ACDBDICTIONARYWDFLT
  2
AcDbDictionaryWithDefault
  3
ObjectDBX Classes
 90
        0
280
     0
281
     0
  0
CLASS
  1
VISUALSTYLE
  2
AcDbVisualStyle
  3
ObjectDBX Classes
 90
     4095
280
     0
281
     0
  0
CLASS
  1

  2
exOdDbCircle
  3

 90
        0
280
     0
281
     1
  0
CLASS
  1

  2
exOdDbSpline
  3

 90
        0
280
     0
281
     1
  0
CLASS
  1

  2
exOdDbPolyline
  3

 90
        0
280
     0
281
     1
  0
CLASS
  1
ACDBPLACEHOLDER
  2
AcDbPlaceHolder
  3
ObjectDBX Classes
 90
        0
280
     0
281
     0
  0
CLASS
  1
LAYOUT
  2
AcDbLayout
  3
ObjectDBX Classes
 90
        0
280
     0
281
     0
  0
ENDSEC
  0
SECTION
  2
TABLES
  0
TABLE
  2
VPORT
  5
8
330
0
100
AcDbSymbolTable
 70
     1
  0
VPORT
  5
29
330
8
100
AcDbSymbolTableRecord
100
AcDbViewportTableRecord
  2
*Active
 70
     0
 10
0.0
 20
0.0
 11
1.0
 21
1.0
 12
158.710886235812
 22
329.793329709917
 13
0.0
 23
0.0
 14
0.5
 24
0.5
 15
0.5
 25
0.5
 16
0.0
 26
0.0
 36
1.0
 17
0.0
 27
0.0
 37
0.0
 40
451.0000000000001
 41
1.60267857142857
 42
50.0
 43
0.0
 44
0.0
 50
0.0
 51
0.0
 71
     0
 72
   100
 73
     1
 74
     3
 75
     0
 76
     0
 77
     0
 78
     0
281
     0
 65
     1
110
0.0
120
0.0
130
0.0
111
1.0
121
0.0
131
0.0
112
0.0
122
1.0
132
0.0
 79
     0
146
0.0
  0
ENDTAB
  0
TABLE
  2
LTYPE
  5
5
330
0
100
AcDbSymbolTable
 70
     8
  0
LTYPE
  5
14
330
5
100
AcDbSymbolTableRecord
100
AcDbLinetypeTableRecord
  2
ByBlock
 70
     0
  3

 72
    65
 73
     0
 40
0.0
  0
LTYPE
  5
15
330
5
100
AcDbSymbolTableRecord
100
AcDbLinetypeTableRecord
  2
ByLayer
 70
     0
  3

 72
    65
 73
     0
 40
0.0
  0
LTYPE
  5
16
330
5
100
AcDbSymbolTableRecord
100
AcDbLinetypeTableRecord
  2
Continuous
 70
     0
  3
Solid line
 72
    65
 73
     0
 40
0.0
  0
LTYPE
  5
3B
330
5
100
AcDbSymbolTableRecord
100
AcDbLinetypeTableRecord
  2
DASHED
 70
     0
  3
Dashed
 72
    65
 73
     2
 40
15.0
 49
7.0
 74
     0
 49
-8.0
 74
     0
  0
LTYPE
  5
3C
330
5
100
AcDbSymbolTableRecord
100
AcDbLinetypeTableRecord
  2
DOTTED
 70
     0
  3
Dotted
 72
    65
 73
     2
 40
1.0
 49
0.0
 74
     0
 49
-1.0
 74
     0
  0
LTYPE
  5
3D
330
5
100
AcDbSymbolTableRecord
100
AcDbLinetypeTableRecord
  2
DOT_CENTER
 70
     0
  3
Dot_Center
 72
    65
 73
     4
 40
14.0
 49
12.0
 74
     0
 49
-1.0
 74
     0
 49
0.0
 74
     0
 49
-1.0
 74
     0
  0
LTYPE
  5
3E
330
5
100
AcDbSymbolTableRecord
100
AcDbLinetypeTableRecord
  2
LONG_DASHED
 70
     0
  3
Long_Dashed
 72
    65
 73
     2
 40
15.0
 49
10.0
 74
     0
 49
-5.0
 74
     0
  0
LTYPE
  5
3F
330
5
100
AcDbSymbolTableRecord
100
AcDbLinetypeTableRecord
  2
DASH_CENTER
 70
     0
  3
Dash_Center
 72
    65
 73
     4
 40
14.0
 49
11.0
 74
     0
 49
-1.0
 74
     0
 49
1.0
 74
     0
 49
-1.0
 74
     0
  0
LTYPE
  5
40
330
5
100
AcDbSymbolTableRecord
100
AcDbLinetypeTableRecord
  2
PHANTOM
 70
     0
  3
Phantom
 72
    65
 73
     6
 40
13.0
 49
10.0
 74
     0
 49
-1.0
 74
     0
 49
0.0
 74
     0
 49
-1.0
 74
     0
 49
0.0
 74
     0
 49
-1.0
 74
     0
  0
LTYPE
  5
41
330
5
100
AcDbSymbolTableRecord
100
AcDbLinetypeTableRecord
  2
CENTER_DASH_DASH
 70
     0
  3
Center_Dash_Dash
 72
    65
 73
     6
 40
14.0
 49
9.0
 74
     0
 49
-1.0
 74
     0
 49
1.0
 74
     0
 49
-1.0
 74
     0
 49
1.0
 74
     0
 49
-1.0
 74
     0
  0
ENDTAB
  0
TABLE
  2
LAYER
  5
2
330
0
100
AcDbSymbolTable
 70
     2
  0
LAYER
  5
10
330
2
100
AcDbSymbolTableRecord
100
AcDbLayerTableRecord
  2
0
 70
     0
 62
     7
  6
Continuous
370
    -3
390
F
  0
LAYER
  5
42
330
2
100
AcDbSymbolTableRecord
100
AcDbLayerTableRecord
  2
1
 70
     0
 62
     7
  6
Continuous
370
    -3
390
F
  0
ENDTAB
  0
TABLE
  2
STYLE
  5
3
330
0
100
AcDbSymbolTable
 70
    11
  0
STYLE
  5
11
330
3
100
AcDbSymbolTableRecord
100
AcDbTextStyleTableRecord
  2
Standard
 70
     0
 40
0.0
 41
1.0
 50
0.0
 71
     0
 42
0.2
  3
txt
  4

  0
STYLE
  5
1BD
330
3
100
AcDbSymbolTableRecord
100
AcDbTextStyleTableRecord
  2
CONVERTER_11
 70
     0
 40
0.0
 41
1.17
 50
0.0
 71
     0
 42
0.2
  3
txt.shx
  4

  0
STYLE
  5
1BF
330
3
100
AcDbSymbolTableRecord
100
AcDbTextStyleTableRecord
  2
CONVERTER_12
 70
     0
 40
0.0
 41
0.95
 50
0.0
 71
     0
 42
0.2
  3
complex.shx
  4

  0
STYLE
  5
1C3
330
3
100
AcDbSymbolTableRecord
100
AcDbTextStyleTableRecord
  2
CONVERTER_13
 70
     0
 40
0.0
 41
0.9
 50
0.0
 71
     0
 42
0.2
  3
txt.shx
  4

  0
STYLE
  5
324
330
3
100
AcDbSymbolTableRecord
100
AcDbTextStyleTableRecord
  2
CONVERTER_14
 70
     0
 40
0.0
 41
0.765
 50
0.0
 71
     0
 42
0.2
  3
txt.shx
  4

  0
STYLE
  5
326
330
3
100
AcDbSymbolTableRecord
100
AcDbTextStyleTableRecord
  2
CONVERTER_15
 70
     0
 40
0.0
 41
0.72
 50
0.0
 71
     0
 42
0.2
  3
txt.shx
  4

  0
STYLE
  5
32C
330
3
100
AcDbSymbolTableRecord
100
AcDbTextStyleTableRecord
  2
CONVERTER_16
 70
     0
 40
0.0
 41
0.675
 50
0.0
 71
     0
 42
0.2
  3
txt.shx
  4

  0
STYLE
  5
332
330
3
100
AcDbSymbolTableRecord
100
AcDbTextStyleTableRecord
  2
CONVERTER_17
 70
     0
 40
0.0
 41
0.54
 50
0.0
 71
     0
 42
0.2
  3
txt.shx
  4

  0
STYLE
  5
363
330
3
100
AcDbSymbolTableRecord
100
AcDbTextStyleTableRecord
  2
CONVERTER_18
 70
     0
 40
0.0
 41
0.66696267749507
 50
0.0
 71
     0
 42
0.2
  3
txt.shx
  4

  0
STYLE
  5
374
330
3
100
AcDbSymbolTableRecord
100
AcDbTextStyleTableRecord
  2
CONVERTER_19
 70
     0
 40
0.0
 41
0.81
 50
0.0
 71
     0
 42
0.2
  3
txt.shx
  4

  0
STYLE
  5
4DC
330
3
100
AcDbSymbolTableRecord
100
AcDbTextStyleTableRecord
  2
CONVERTER_20
 70
     0
 40
0.0
 41
1.045
 50
0.0
 71
     0
 42
0.2
  3
complex.shx
  4

  0
ENDTAB
  0
TABLE
  2
VIEW
  5
6
330
0
100
AcDbSymbolTable
 70
     0
  0
ENDTAB
  0
TABLE
  2
UCS
  5
7
330
0
100
AcDbSymbolTable
 70
     0
  0
ENDTAB
  0
TABLE
  2
APPID
  5
9
330
0
100
AcDbSymbolTable
 70
     1
  0
APPID
  5
12
330
9
100
AcDbSymbolTableRecord
100
AcDbRegAppTableRecord
  2
ACAD
 70
     0
  0
ENDTAB
  0
TABLE
  2
DIMSTYLE
  5
A
330
0
100
AcDbSymbolTable
 70
    23
100
AcDbDimStyleTable
  0
DIMSTYLE
105
27
330
A
100
AcDbSymbolTableRecord
100
AcDbDimStyleTableRecord
  2
Standard
 70
     0
340
11
  0
DIMSTYLE
105
1D2
102
{ACAD_REACTORS
330
1D3
102
}
330
A
100
AcDbSymbolTableRecord
100
AcDbDimStyleTableRecord
  2
ME10_DIM_10
 70
     0
 41
7.0
 42
0.0
 44
4.0
 73
     0
 74
     0
 77
     1
 78
     8
140
7.0
147
4.0
172
     1
173
     1
176
     3
177
     3
178
     4
271
     1
340
1C3
  0
DIMSTYLE
105
1DE
102
{ACAD_REACTORS
330
1DF
102
}
330
A
100
AcDbSymbolTableRecord
100
AcDbDimStyleTableRecord
  2
ME10_DIM_11
 70
     0
 41
7.0
 42
0.0
 44
4.0
 73
     0
 74
     0
 77
     1
 78
     8
140
7.0
147
4.0
172
     1
173
     1
176
     3
177
     3
178
     4
271
     2
340
1C3
  0
DIMSTYLE
105
1EA
102
{ACAD_REACTORS
330
1EB
102
}
330
A
100
AcDbSymbolTableRecord
100
AcDbDimStyleTableRecord
  2
ME10_DIM_12
 70
     0
 41
7.0
 42
0.0
 44
4.0
 73
     0
 74
     0
 77
     1
 78
     8
140
7.0
147
4.0
172
     1
173
     1
176
     3
177
     3
178
     4
271
     2
340
1C3
  0
DIMSTYLE
105
1F6
102
{ACAD_REACTORS
330
1F7
102
}
330
A
100
AcDbSymbolTableRecord
100
AcDbDimStyleTableRecord
  2
ME10_DIM_13
 70
     0
 41
7.0
 42
0.0
 44
4.0
 73
     0
 74
     0
 77
     1
 78
     8
140
7.0
147
4.0
172
     1
173
     1
176
     3
177
     3
178
     4
271
     2
340
1C3
  0
DIMSTYLE
105
202
102
{ACAD_REACTORS
330
203
102
}
330
A
100
AcDbSymbolTableRecord
100
AcDbDimStyleTableRecord
  2
ME10_DIM_14
 70
     0
 41
7.0
 42
0.0
 44
4.0
 73
     0
 74
     0
 77
     1
 78
     8
140
7.0
147
4.0
172
     1
173
     1
176
     3
177
     3
178
     4
271
     1
340
1C3
  0
DIMSTYLE
105
20E
102
{ACAD_REACTORS
330
20F
102
}
330
A
100
AcDbSymbolTableRecord
100
AcDbDimStyleTableRecord
  2
ME10_DIM_15
 70
     0
 41
7.0
 42
0.0
 44
4.0
 73
     0
 74
     0
 77
     1
 78
     8
140
7.0
147
4.0
172
     1
173
     1
176
     3
177
     3
178
     4
271
     1
340
1C3
  0
DIMSTYLE
105
21A
102
{ACAD_REACTORS
330
21B
102
}
330
A
100
AcDbSymbolTableRecord
100
AcDbDimStyleTableRecord
  2
ME10_DIM_16
 70
     0
 41
7.0
 42
0.0
 44
4.0
 73
     0
 74
     0
 77
     1
 78
     8
140
7.0
147
4.0
172
     1
173
     1
176
     3
177
     3
178
     4
271
     2
340
1C3
  0
DIMSTYLE
105
226
102
{ACAD_REACTORS
330
227
102
}
330
A
100
AcDbSymbolTableRecord
100
AcDbDimStyleTableRecord
  2
ME10_DIM_17
 70
     0
 41
7.0
 42
0.0
 44
4.0
 73
     0
 74
     0
 77
     1
 78
     8
140
7.0
147
4.0
172
     1
173
     1
176
     3
177
     3
178
     4
271
     2
340
1C3
  0
DIMSTYLE
105
231
102
{ACAD_REACTORS
330
232
102
}
330
A
100
AcDbSymbolTableRecord
100
AcDbDimStyleTableRecord
  2
ME10_DIM_18
 70
     0
 41
7.0
 42
0.0
 44
4.0
 47
0.2
 48
0.2
 71
     1
 73
     0
 74
     0
 77
     1
 78
     8
140
7.0
146
0.6
147
4.0
172
     1
173
     1
176
     3
177
     3
178
     4
271
     2
272
     1
340
1C3
  0
DIMSTYLE
105
23C
102
{ACAD_REACTORS
330
23D
102
}
330
A
100
AcDbSymbolTableRecord
100
AcDbDimStyleTableRecord
  2
ME10_DIM_19
 70
     0
 41
7.0
 42
0.0
 44
4.0
 47
1.0
 48
1.0
 71
     1
 73
     0
 74
     0
 77
     1
 78
     8
140
7.0
146
0.6
147
4.0
172
     1
173
     1
176
     3
177
     3
178
     4
271
     2
272
     0
340
1C3
  0
DIMSTYLE
105
247
102
{ACAD_REACTORS
330
248
102
}
330
A
100
AcDbSymbolTableRecord
100
AcDbDimStyleTableRecord
  2
ME10_DIM_20
 70
     0
 41
7.0
 42
0.0
 44
4.0
 47
0.2
 48
0.2
 71
     1
 73
     0
 74
     0
 77
     1
 78
     8
140
7.0
146
0.6
147
4.0
172
     1
173
     1
176
     3
177
     3
178
     4
271
     2
272
     1
340
1C3
  0
DIMSTYLE
105
252
102
{ACAD_REACTORS
330
253
102
}
330
A
100
AcDbSymbolTableRecord
100
AcDbDimStyleTableRecord
  2
ME10_DIM_21
 70
     0
 41
7.0
 42
0.0
 44
4.0
 47
1.0
 48
1.0
 71
     1
 73
     0
 74
     0
 77
     1
 78
     8
140
7.0
146
0.6
147
4.0
172
     1
173
     1
176
     3
177
     3
178
     4
271
     2
272
     0
340
1C3
  0
DIMSTYLE
105
25D
102
{ACAD_REACTORS
330
25E
102
}
330
A
100
AcDbSymbolTableRecord
100
AcDbDimStyleTableRecord
  2
ME10_DIM_22
 70
     0
 41
7.0
 42
0.0
 44
4.0
 47
1.0
 48
1.0
 71
     1
 73
     0
 74
     0
 77
     1
 78
     8
140
7.0
146
0.6
147
4.0
172
     1
173
     1
176
     3
177
     3
178
     4
271
     2
272
     0
340
1C3
  0
DIMSTYLE
105
268
102
{ACAD_REACTORS
330
269
102
}
330
A
100
AcDbSymbolTableRecord
100
AcDbDimStyleTableRecord
  2
ME10_DIM_23
 70
     0
 41
7.0
 42
0.0
 44
4.0
 47
0.2
 48
0.2
 71
     1
 73
     0
 74
     0
 77
     1
 78
     8
140
7.0
146
0.6
147
4.0
172
     1
173
     1
176
     3
177
     3
178
     4
271
     2
272
     1
340
1C3
  0
DIMSTYLE
105
273
102
{ACAD_REACTORS
330
274
102
}
330
A
100
AcDbSymbolTableRecord
100
AcDbDimStyleTableRecord
  2
ME10_DIM_24
 70
     0
 41
7.0
 42
0.0
 44
4.0
 47
1.0
 48
1.0
 71
     1
 73
     0
 74
     0
 77
     1
 78
     8
140
7.0
146
0.6
147
4.0
172
     1
173
     1
176
     3
177
     3
178
     4
271
     2
272
     0
340
1C3
  0
DIMSTYLE
105
27E
102
{ACAD_REACTORS
330
27F
102
}
330
A
100
AcDbSymbolTableRecord
100
AcDbDimStyleTableRecord
  2
ME10_DIM_25
 70
     0
 41
7.0
 42
0.0
 44
4.0
 47
0.2
 48
0.2
 71
     1
 73
     0
 74
     0
 77
     1
 78
     8
140
7.0
146
0.6
147
4.0
172
     1
173
     1
176
     3
177
     3
178
     4
271
     2
272
     1
340
1C3
  0
DIMSTYLE
105
47D
102
{ACAD_REACTORS
330
47E
102
}
330
A
100
AcDbSymbolTableRecord
100
AcDbDimStyleTableRecord
  2
ME10_DIM_26
 70
     0
 41
3.5
 42
0.0
 44
2.0
 73
     0
 74
     0
 77
     1
 78
     8
140
3.5
147
2.0
172
     1
173
     1
176
     3
177
     3
178
     4
271
     2
340
1C3
  0
DIMSTYLE
105
488
102
{ACAD_REACTORS
330
489
102
}
330
A
100
AcDbSymbolTableRecord
100
AcDbDimStyleTableRecord
  2
ME10_DIM_27
 70
     0
 41
3.5
 42
0.0
 44
2.0
 73
     0
 74
     0
 77
     1
 78
     8
140
3.5
147
2.0
172
     1
173
     1
176
     3
177
     3
178
     4
271
     2
340
1C3
  0
DIMSTYLE
105
493
102
{ACAD_REACTORS
330
494
102
}
330
A
100
AcDbSymbolTableRecord
100
AcDbDimStyleTableRecord
  2
ME10_DIM_28
 70
     0
 41
3.5
 42
0.0
 44
2.0
 73
     0
 74
     0
 77
     1
 78
     8
140
3.5
147
2.0
172
     1
173
     1
176
     3
177
     3
178
     4
271
     2
340
1C3
  0
DIMSTYLE
105
49E
102
{ACAD_REACTORS
330
49F
102
}
330
A
100
AcDbSymbolTableRecord
100
AcDbDimStyleTableRecord
  2
ME10_DIM_29
 70
     0
 41
3.5
 42
0.0
 44
2.0
 47
0.1
 48
0.1
 71
     1
 73
     0
 74
     0
 77
     1
 78
     8
140
3.5
146
0.6
147
2.0
172
     1
173
     1
176
     3
177
     3
178
     4
271
     2
272
     1
340
1C3
  0
DIMSTYLE
105
4A9
102
{ACAD_REACTORS
330
4AA
102
}
330
A
100
AcDbSymbolTableRecord
100
AcDbDimStyleTableRecord
  2
ME10_DIM_30
 70
     0
 41
3.5
 42
0.0
 44
2.0
 47
1.0
 48
1.0
 71
     1
 73
     0
 74
     0
 77
     1
 78
     8
140
3.5
146
0.6
147
2.0
172
     1
173
     1
176
     3
177
     3
178
     4
271
     2
272
     0
340
1C3
  0
DIMSTYLE
105
4B4
102
{ACAD_REACTORS
330
4B5
102
}
330
A
100
AcDbSymbolTableRecord
100
AcDbDimStyleTableRecord
  2
ME10_DIM_31
 70
     0
 41
3.5
 42
0.0
 44
2.0
 73
     0
 74
     0
 77
     1
 78
     8
140
3.5
147
2.0
172
     1
173
     1
176
     3
177
     3
178
     4
271
     2
340
1C3
  0
ENDTAB
  0
TABLE
  2
BLOCK_RECORD
  5
1
330
0
100
AcDbSymbolTable
 70
    32
  0
BLOCK_RECORD
  5
1F
330
1
100
AcDbSymbolTableRecord
100
AcDbBlockTableRecord
  2
*Model_Space
340
22
  0
BLOCK_RECORD
  5
1B
330
1
100
AcDbSymbolTableRecord
100
AcDbBlockTableRecord
  2
*Paper_Space
340
1E
  0
BLOCK_RECORD
  5
23
330
1
100
AcDbSymbolTableRecord
100
AcDbBlockTableRecord
  2
*Paper_Space0
340
26
  0
BLOCK_RECORD
  5
43
330
1
100
AcDbSymbolTableRecord
100
AcDbBlockTableRecord
  2
Vorderansicht
340
0
102
{BLKREFS
331
5B
102
}
  0
BLOCK_RECORD
  5
46
330
1
100
AcDbSymbolTableRecord
100
AcDbBlockTableRecord
  2
a2kl
340
0
102
{BLKREFS
331
4A
102
}
  0
BLOCK_RECORD
  5
49
330
1
100
AcDbSymbolTableRecord
100
AcDbBlockTableRecord
  2
rahmen
340
0
102
{BLKREFS
331
5C
102
}
  0
BLOCK_RECORD
  5
4D
330
1
100
AcDbSymbolTableRecord
100
AcDbBlockTableRecord
  2
Diagramm
340
0
102
{BLKREFS
331
5D
102
}
  0
BLOCK_RECORD
  5
50
330
1
100
AcDbSymbolTableRecord
100
AcDbBlockTableRecord
  2
Drehlager
340
0
102
{BLKREFS
331
57
102
}
  0
BLOCK_RECORD
  5
53
330
1
100
AcDbSymbolTableRecord
100
AcDbBlockTableRecord
  2
Profil-Stahltuer
340
0
102
{BLKREFS
331
58
102
}
  0
BLOCK_RECORD
  5
56
330
1
100
AcDbSymbolTableRecord
100
AcDbBlockTableRecord
  2
Schnitt
340
0
102
{BLKREFS
331
5E
102
}
  0
BLOCK_RECORD
  5
1C8
330
1
100
AcDbSymbolTableRecord
100
AcDbBlockTableRecord
  2
*D8
340
0
  0
BLOCK_RECORD
  5
1D4
330
1
100
AcDbSymbolTableRecord
100
AcDbBlockTableRecord
  2
*D9
340
0
  0
BLOCK_RECORD
  5
1E0
330
1
100
AcDbSymbolTableRecord
100
AcDbBlockTableRecord
  2
*D10
340
0
  0
BLOCK_RECORD
  5
1EC
330
1
100
AcDbSymbolTableRecord
100
AcDbBlockTableRecord
  2
*D11
340
0
  0
BLOCK_RECORD
  5
1F8
330
1
100
AcDbSymbolTableRecord
100
AcDbBlockTableRecord
  2
*D12
340
0
  0
BLOCK_RECORD
  5
204
330
1
100
AcDbSymbolTableRecord
100
AcDbBlockTableRecord
  2
*D13
340
0
  0
BLOCK_RECORD
  5
210
330
1
100
AcDbSymbolTableRecord
100
AcDbBlockTableRecord
  2
*D14
340
0
  0
BLOCK_RECORD
  5
21C
330
1
100
AcDbSymbolTableRecord
100
AcDbBlockTableRecord
  2
*D15
340
0
  0
BLOCK_RECORD
  5
228
330
1
100
AcDbSymbolTableRecord
100
AcDbBlockTableRecord
  2
*D16
340
0
  0
BLOCK_RECORD
  5
233
330
1
100
AcDbSymbolTableRecord
100
AcDbBlockTableRecord
  2
*D17
340
0
  0
BLOCK_RECORD
  5
23E
330
1
100
AcDbSymbolTableRecord
100
AcDbBlockTableRecord
  2
*D18
340
0
  0
BLOCK_RECORD
  5
249
330
1
100
AcDbSymbolTableRecord
100
AcDbBlockTableRecord
  2
*D19
340
0
  0
BLOCK_RECORD
  5
254
330
1
100
AcDbSymbolTableRecord
100
AcDbBlockTableRecord
  2
*D20
340
0
  0
BLOCK_RECORD
  5
25F
330
1
100
AcDbSymbolTableRecord
100
AcDbBlockTableRecord
  2
*D21
340
0
  0
BLOCK_RECORD
  5
26A
330
1
100
AcDbSymbolTableRecord
100
AcDbBlockTableRecord
  2
*D22
340
0
  0
BLOCK_RECORD
  5
275
330
1
100
AcDbSymbolTableRecord
100
AcDbBlockTableRecord
  2
*D23
340
0
  0
BLOCK_RECORD
  5
474
330
1
100
AcDbSymbolTableRecord
100
AcDbBlockTableRecord
  2
*D24
340
0
  0
BLOCK_RECORD
  5
47F
330
1
100
AcDbSymbolTableRecord
100
AcDbBlockTableRecord
  2
*D25
340
0
  0
BLOCK_RECORD
  5
48A
330
1
100
AcDbSymbolTableRecord
100
AcDbBlockTableRecord
  2
*D26
340
0
  0
BLOCK_RECORD
  5
495
330
1
100
AcDbSymbolTableRecord
100
AcDbBlockTableRecord
  2
*D27
340
0
  0
BLOCK_RECORD
  5
4A0
330
1
100
AcDbSymbolTableRecord
100
AcDbBlockTableRecord
  2
*D28
340
0
  0
BLOCK_RECORD
  5
4AB
330
1
100
AcDbSymbolTableRecord
100
AcDbBlockTableRecord
  2
*D29
340
0
  0
BLOCK_RECORD
  5
4B6
330
1
100
AcDbSymbolTableRecord
100
AcDbBlockTableRecord
  2
*D30
340
0
102
{BLKREFS
331
4BF
102
}
  0
BLOCK_RECORD
  5
4C0
330
1
100
AcDbSymbolTableRecord
100
AcDbBlockTableRecord
  2
*D31
340
0
102
{BLKREFS
331
4C9
102
}
  0
ENDTAB
  0
ENDSEC
  0
SECTION
  2
BLOCKS
  0
BLOCK
  5
20
330
1F
100
AcDbEntity
  8
0
100
AcDbBlockBegin
  2
*Model_Space
 70
     0
 71
     0
 10
0.0
 20
0.0
 30
0.0
  3
*Model_Space
  1

  0
ENDBLK
  5
21
330
1F
100
AcDbEntity
  8
0
100
AcDbBlockEnd
  0
BLOCK
  5
1C
330
1B
100
AcDbEntity
 67
     1
  8
0
100
AcDbBlockBegin
  2
*Paper_Space
 70
     0
 71
     0
 10
0.0
 20
0.0
 30
0.0
  3
*Paper_Space
  1

  0
ENDBLK
  5
1D
330
1B
100
AcDbEntity
 67
     1
  8
0
100
AcDbBlockEnd
  0
BLOCK
  5
24
330
23
100
AcDbEntity
  8
0
100
AcDbBlockBegin
  2
*Paper_Space0
 70
     0
 71
     0
 10
0.0
 20
0.0
 30
0.0
  3
*Paper_Space0
  1

  0
ENDBLK
  5
25
330
23
100
AcDbEntity
  8
0
100
AcDbBlockEnd
  0
BLOCK
  5
44
330
43
100
AcDbEntity
  8
0
100
AcDbBlockBegin
  2
Vorderansicht
 70
     0
 71
     0
 10
35.506218446342
 20
1461.92328492144
 30
0.0
  3
Vorderansicht
  1

  0
LINE
  5
5F
330
43
100
AcDbEntity
  8
1
  6
Continuous
 62
     3
100
AcDbLine
 10
739.2946007504761
 20
898.0674674690259
 30
0.0
 11
757.1946007504761
 21
927.4674674690258
 31
0.0
  0
LINE
  5
60
330
43
100
AcDbEntity
  8
1
  6
Continuous
 62
     3
100
AcDbLine
 10
417.8808518653
 20
963.9690301809079
 30
0.0
 11
445.8808518653
 21
978.169030180908
 31
0.0
  0
LINE
  5
61
330
43
100
AcDbEntity
  8
0
  6
DASH_CENTER
 62
     3
100
AcDbLine
 10
330.4410452629662
 20
893.639836631488
 30
0.0
 11
329.4412892629663
 21
893.639836631488
 31
0.0
  0
LINE
  5
62
330
43
100
AcDbEntity
  8
0
  6
DASH_CENTER
 62
     3
100
AcDbLine
 10
393.4422672629663
 20
991.0153246314879
 30
0.0
 11
393.4422672629663
 21
904.1393486314879
 31
0.0
  0
LINE
  5
63
330
43
100
AcDbEntity
  8
0
  6
Continuous
 62
     4
100
AcDbLine
 10
382.4427552629663
 20
914.9035086314879
 30
0.0
 11
383.4611872629662
 21
913.139836631488
 31
0.0
  0
LINE
  5
64
330
43
100
AcDbEntity
  8
0
  6
Continuous
 62
     4
100
AcDbLine
 10
403.4241992629662
 20
913.139836631488
 30
0.0
 11
404.4425112629663
 21
914.9035086314879
 31
0.0
  0
LINE
  5
65
330
43
100
AcDbEntity
  8
0
  6
Continuous
 62
     4
100
AcDbLine
 10
404.4425112629663
 20
914.9035086314879
 30
0.0
 11
382.4427552629663
 21
914.9035086314879
 31
0.0
  0
LINE
  5
66
330
43
100
AcDbEntity
  8
0
  6
Continuous
 62
     4
100
AcDbLine
 10
760.9406892629662
 20
873.840030631488
 30
0.0
 11
760.9406892629662
 21
903.8395426314879
 31
0.0
  0
LINE
  5
67
330
43
100
AcDbEntity
  8
0
  6
Continuous
 62
     1
100
AcDbLine
 10
314.4412892629663
 20
873.840030631488
 30
0.0
 11
760.9406892629662
 21
873.840030631488
 31
0.0
  0
LINE
  5
68
330
43
100
AcDbEntity
  8
0
  6
Continuous
 62
     4
100
AcDbLine
 10
314.4412892629663
 20
903.8395426314879
 30
0.0
 11
314.4412892629663
 21
873.840030631488
 31
0.0
  0
LINE
  5
69
330
43
100
AcDbEntity
  8
0
  6
Continuous
 62
     1
100
AcDbLine
 10
760.9406892629662
 20
903.8395426314879
 30
0.0
 11
314.4412892629663
 21
903.8395426314879
 31
0.0
  0
LINE
  5
6A
330
43
100
AcDbEntity
  8
0
  6
Continuous
 62
     4
100
AcDbLine
 10
737.4411062545466
 20
907.139836631488
 30
0.0
 11
382.4427552629663
 21
907.139836631488
 31
0.0
  0
LINE
  5
6B
330
43
100
AcDbEntity
  8
0
  6
DASH_CENTER
 62
     3
100
AcDbLine
 10
726.4408622545466
 20
897.1393486314879
 30
0.0
 11
726.4408622545466
 21
917.1393486314879
 31
0.0
  0
LINE
  5
6C
330
43
100
AcDbEntity
  8
0
  6
Continuous
 62
     4
100
AcDbLine
 10
730.6909842545466
 20
914.1393486314879
 30
0.0
 11
722.1907402545467
 21
914.1393486314879
 31
0.0
  0
LINE
  5
6D
330
43
100
AcDbEntity
  8
0
  6
Continuous
 62
     4
100
AcDbLine
 10
731.6904962545466
 20
913.139836631488
 30
0.0
 11
730.6909842545466
 21
914.1393486314879
 31
0.0
  0
LINE
  5
6E
330
43
100
AcDbEntity
  8
0
  6
Continuous
 62
     4
100
AcDbLine
 10
721.1911062545466
 20
913.139836631488
 30
0.0
 11
722.1907402545467
 21
914.1393486314879
 31
0.0
  0
LINE
  5
6F
330
43
100
AcDbEntity
  8
0
  6
Continuous
 62
     4
100
AcDbLine
 10
382.4427552629663
 20
913.139836631488
 30
0.0
 11
737.4411062545466
 21
913.139836631488
 31
0.0
  0
LINE
  5
70
330
43
100
AcDbEntity
  8
0
  6
DASH_CENTER
 62
     3
100
AcDbLine
 10
780.3288582445113
 20
1007.467942952958
 30
0.0
 11
780.3414723357819
 21
788.482074631488
 31
0.0
  0
LINE
  5
71
330
43
100
AcDbEntity
  8
0
  6
Continuous
 62
     4
100
AcDbLine
 10
734.4408622545466
 20
903.8395426314879
 30
0.0
 11
734.4408622545466
 21
907.139836631488
 31
0.0
  0
LINE
  5
72
330
43
100
AcDbEntity
  8
0
  6
Continuous
 62
     4
100
AcDbLine
 10
718.4408622545466
 20
903.8395426314879
 30
0.0
 11
718.4408622545466
 21
907.139836631488
 31
0.0
  0
LINE
  5
73
330
43
100
AcDbEntity
  8
0
  6
Continuous
 62
     4
100
AcDbLine
 10
737.4411062545466
 20
913.139836631488
 30
0.0
 11
737.4411062545466
 21
907.139836631488
 31
0.0
  0
LINE
  5
74
330
43
100
AcDbEntity
  8
0
  6
DASH_CENTER
 62
     3
100
AcDbLine
 10
760.4538732629665
 20
893.639836631488
 30
0.0
 11
744.9408112629662
 21
893.639836631488
 31
0.0
  0
LINE
  5
75
330
43
100
AcDbEntity
  8
0
  6
DASH_CENTER
 62
     3
100
AcDbLine
 10
751.9406892629662
 20
900.639836631488
 30
0.0
 11
751.9406892629662
 21
886.6393486314879
 31
0.0
  0
LINE
  5
76
330
43
100
AcDbEntity
  8
0
  6
Continuous
 62
     4
100
AcDbLine
 10
382.4427552629663
 20
907.139836631488
 30
0.0
 11
382.4427552629663
 21
913.139836631488
 31
0.0
  0
LINE
  5
77
330
43
100
AcDbEntity
  8
0
  6
Continuous
 62
     4
100
AcDbLine
 10
404.4425112629663
 20
916.6393486314877
 30
0.0
 11
404.4425112629663
 21
914.9035086314879
 31
0.0
  0
LINE
  5
78
330
43
100
AcDbEntity
  8
0
  6
Continuous
 62
     4
100
AcDbLine
 10
382.4427552629663
 20
916.6393486314877
 30
0.0
 11
382.4427552629663
 21
923.6393486314879
 31
0.0
  0
LINE
  5
79
330
43
100
AcDbEntity
  8
0
  6
DASH_CENTER
 62
     3
100
AcDbLine
 10
329.4412892629663
 20
893.639836631488
 30
0.0
 11
316.4406792629662
 21
893.639836631488
 31
0.0
  0
LINE
  5
7A
330
43
100
AcDbEntity
  8
0
  6
DASH_CENTER
 62
     3
100
AcDbLine
 10
323.4412892629663
 20
900.639836631488
 30
0.0
 11
323.4412892629663
 21
886.6393486314879
 31
0.0
  0
LINE
  5
7B
330
43
100
AcDbEntity
  8
0
  6
Continuous
 62
     1
100
AcDbLine
 10
311.4412892629663
 20
873.840030631488
 30
0.0
 11
763.9300782445113
 21
873.840030631488
 31
0.0
  0
LINE
  5
7C
330
43
100
AcDbEntity
  8
0
  6
Continuous
 62
     4
100
AcDbLine
 10
763.9300782445113
 20
903.8395426314879
 30
0.0
 11
763.9300782445113
 21
873.840030631488
 31
0.0
  0
LINE
  5
7D
330
43
100
AcDbEntity
  8
0
  6
Continuous
 62
     1
100
AcDbLine
 10
760.9406892629662
 20
903.8395426314879
 30
0.0
 11
763.9300782445113
 21
903.8395426314879
 31
0.0
  0
LINE
  5
7E
330
43
100
AcDbEntity
  8
0
  6
Continuous
 62
     4
100
AcDbLine
 10
311.4412892629662
 20
903.8395426314879
 30
0.0
 11
311.4412892629663
 21
873.840030631488
 31
0.0
  0
LINE
  5
7F
330
43
100
AcDbEntity
  8
0
  6
Continuous
 62
     4
100
AcDbLine
 10
314.4412892629663
 20
903.8395426314879
 30
0.0
 11
311.4412892629662
 21
903.8395426314879
 31
0.0
  0
LINE
  5
80
330
43
100
AcDbEntity
  8
0
  6
DOT_CENTER
 62
     3
100
AcDbLine
 10
203.4412892629663
 20
836.6403266314879
 30
0.0
 11
203.4412892629663
 21
788.482074631488
 31
0.0
  0
LINE
  5
81
330
43
100
AcDbEntity
  8
0
  6
Continuous
 62
     1
100
AcDbLine
 10
192.4412892629663
 20
816.6403266314879
 30
0.0
 11
214.4412892629663
 21
816.6403266314879
 31
0.0
  0
LINE
  5
82
330
43
100
AcDbEntity
  8
0
  6
Continuous
 62
     1
100
AcDbLine
 10
192.4412892629663
 20
816.6403266314879
 30
0.0
 11
192.4412892629663
 21
788.482074631488
 31
0.0
  0
LINE
  5
83
330
43
100
AcDbEntity
  8
0
  6
Continuous
 62
     1
100
AcDbLine
 10
214.4412892629663
 20
816.6403266314879
 30
0.0
 11
214.4412892629663
 21
788.482074631488
 31
0.0
  0
LINE
  5
84
330
43
100
AcDbEntity
  8
0
  6
Continuous
 62
     1
100
AcDbLine
 10
225.4412292629663
 20
788.482074631488
 30
0.0
 11
225.4412292629663
 21
903.639836631488
 31
0.0
  0
LINE
  5
85
330
43
100
AcDbEntity
  8
1
  6
Continuous
 62
     1
100
AcDbLine
 10
225.4412292629663
 20
903.639836631488
 30
0.0
 11
311.4412892629662
 21
903.639836631488
 31
0.0
  0
LINE
  5
86
330
43
100
AcDbEntity
  8
0
  6
Continuous
 62
     4
100
AcDbLine
 10
382.4427552629663
 20
914.9035086314879
 30
0.0
 11
382.4427552629663
 21
916.6393486314877
 31
0.0
  0
LINE
  5
87
330
43
100
AcDbEntity
  8
0
  6
Continuous
 62
     4
100
AcDbLine
 10
404.4425112629663
 20
923.6393486314879
 30
0.0
 11
404.4425112629663
 21
916.6393486314877
 31
0.0
  0
LINE
  5
88
330
43
100
AcDbEntity
  8
0
  6
DASH_CENTER
 62
     3
100
AcDbLine
 10
130.9412292629662
 20
788.4820746314879
 30
0.0
 11
780.3414723357819
 21
788.482074631488
 31
0.0
  0
LINE
  5
89
330
43
100
AcDbEntity
  8
1
  6
DOT_CENTER
 62
     3
100
AcDbLine
 10
373.4422672629661
 20
966.6393486314879
 30
0.0
 11
373.4422672629661
 21
984.6393486314879
 31
0.0
  0
LINE
  5
8A
330
43
100
AcDbEntity
  8
1
  6
DOT_CENTER
 62
     3
100
AcDbLine
 10
382.4422672629661
 20
975.6393486314879
 30
0.0
 11
364.4422672629661
 21
975.6393486314879
 31
0.0
  0
LINE
  5
8B
330
43
100
AcDbEntity
  8
1
  6
DOT_CENTER
 62
     3
100
AcDbLine
 10
413.4422672629661
 20
966.6393486314879
 30
0.0
 11
413.4422672629661
 21
984.6393486314879
 31
0.0
  0
LINE
  5
8C
330
43
100
AcDbEntity
  8
1
  6
DOT_CENTER
 62
     3
100
AcDbLine
 10
422.4422672629661
 20
975.6393486314879
 30
0.0
 11
404.4422672629661
 21
975.6393486314879
 31
0.0
  0
LINE
  5
8D
330
43
100
AcDbEntity
  8
0
  6
Continuous
 62
     3
100
AcDbLine
 10
375.2098452629662
 20
977.407414631488
 30
0.0
 11
371.6744452629662
 21
973.871770631488
 31
0.0
  0
LINE
  5
8E
330
43
100
AcDbEntity
  8
0
  6
Continuous
 62
     3
100
AcDbLine
 10
375.2096012629662
 20
973.871770631488
 30
0.0
 11
371.6742012629661
 21
977.407414631488
 31
0.0
  0
LINE
  5
8F
330
43
100
AcDbEntity
  8
0
  6
Continuous
 62
     3
100
AcDbLine
 10
415.209967262966
 20
977.407414631488
 30
0.0
 11
411.6744452629662
 21
973.871770631488
 31
0.0
  0
LINE
  5
90
330
43
100
AcDbEntity
  8
0
  6
Continuous
 62
     3
100
AcDbLine
 10
415.2098452629662
 20
973.871770631488
 30
0.0
 11
411.6743232629661
 21
977.407414631488
 31
0.0
  0
LINE
  5
91
330
43
100
AcDbEntity
  8
1
  6
DOT_CENTER
 62
     3
100
AcDbLine
 10
373.4422672629661
 20
922.6393486314879
 30
0.0
 11
373.4422672629661
 21
940.639348631488
 31
0.0
  0
LINE
  5
92
330
43
100
AcDbEntity
  8
1
  6
DOT_CENTER
 62
     3
100
AcDbLine
 10
413.4422672629661
 20
922.6393486314879
 30
0.0
 11
413.4422672629661
 21
940.639348631488
 31
0.0
  0
LINE
  5
93
330
43
100
AcDbEntity
  8
1
  6
DOT_CENTER
 62
     3
100
AcDbLine
 10
422.4422672629661
 20
931.639348631488
 30
0.0
 11
404.4422672629661
 21
931.639348631488
 31
0.0
  0
LINE
  5
94
330
43
100
AcDbEntity
  8
1
  6
DOT_CENTER
 62
     3
100
AcDbLine
 10
382.442267262966
 20
931.639348631488
 30
0.0
 11
364.4422672629661
 21
931.639348631488
 31
0.0
  0
LINE
  5
95
330
43
100
AcDbEntity
  8
0
  6
Continuous
 62
     3
100
AcDbLine
 10
379.4827332629662
 20
937.2794846314878
 30
0.0
 11
382.9230412629663
 21
937.2794846314878
 31
0.0
  0
LINE
  5
96
330
43
100
AcDbEntity
  8
0
  6
Continuous
 62
     3
100
AcDbLine
 10
384.3026812629663
 20
936.6461846314878
 30
0.0
 11
384.3026812629663
 21
936.5197206314879
 31
0.0
  0
LINE
  5
97
330
43
100
AcDbEntity
  8
0
  6
Continuous
 62
     3
100
AcDbLine
 10
384.3026812629663
 20
936.5197206314879
 30
0.0
 11
383.2222352629663
 21
936.5197206314879
 31
0.0
  0
LINE
  5
98
330
43
100
AcDbEntity
  8
0
  6
Continuous
 62
     3
100
AcDbLine
 10
383.2222352629663
 20
936.5197206314879
 30
0.0
 11
383.2222352629663
 21
937.0197206314879
 31
0.0
  0
LINE
  5
99
330
43
100
AcDbEntity
  8
0
  6
Continuous
 62
     3
100
AcDbLine
 10
383.2222352629663
 20
937.0197206314879
 30
0.0
 11
379.1828072629663
 21
937.0197206314879
 31
0.0
  0
LINE
  5
9A
330
43
100
AcDbEntity
  8
0
  6
Continuous
 62
     3
100
AcDbLine
 10
379.1828072629663
 20
937.0197206314879
 30
0.0
 11
379.1828072629663
 21
933.5397386314878
 31
0.0
  0
LINE
  5
9B
330
43
100
AcDbEntity
  8
0
  6
Continuous
 62
     3
100
AcDbLine
 10
379.1828072629663
 20
933.5397386314878
 30
0.0
 11
383.2222352629663
 21
933.5397386314878
 31
0.0
  0
LINE
  5
9C
330
43
100
AcDbEntity
  8
0
  6
Continuous
 62
     3
100
AcDbLine
 10
383.2222352629663
 20
933.5397386314878
 30
0.0
 11
383.2222352629663
 21
935.1496026314878
 31
0.0
  0
LINE
  5
9D
330
43
100
AcDbEntity
  8
0
  6
Continuous
 62
     3
100
AcDbLine
 10
383.2222352629663
 20
935.1496026314878
 30
0.0
 11
381.5027532629662
 21
935.1496026314878
 31
0.0
  0
LINE
  5
9E
330
43
100
AcDbEntity
  8
0
  6
Continuous
 62
     3
100
AcDbLine
 10
381.5027532629662
 20
935.1496026314878
 30
0.0
 11
381.5027532629662
 21
935.4093686314877
 31
0.0
  0
LINE
  5
9F
330
43
100
AcDbEntity
  8
0
  6
Continuous
 62
     3
100
AcDbLine
 10
381.5027532629662
 20
935.4093686314877
 30
0.0
 11
384.3026812629663
 21
935.4093686314877
 31
0.0
  0
LINE
  5
A0
330
43
100
AcDbEntity
  8
0
  6
Continuous
 62
     3
100
AcDbLine
 10
384.3026812629663
 20
935.4093686314877
 30
0.0
 11
384.3026812629663
 21
933.9127866314877
 31
0.0
  0
LINE
  5
A1
330
43
100
AcDbEntity
  8
0
  6
Continuous
 62
     3
100
AcDbLine
 10
382.9230412629663
 20
933.2794846314878
 30
0.0
 11
379.4827332629662
 21
933.2794846314878
 31
0.0
  0
LINE
  5
A2
330
43
100
AcDbEntity
  8
0
  6
Continuous
 62
     3
100
AcDbLine
 10
378.1029732629663
 20
933.9127866314877
 30
0.0
 11
378.1029732629663
 21
936.6461846314878
 31
0.0
  0
LINE
  5
A3
330
43
100
AcDbEntity
  8
0
  6
Continuous
 62
     3
100
AcDbLine
 10
386.5823432629662
 20
937.2794846314878
 30
0.0
 11
392.7827832629662
 21
937.2794846314878
 31
0.0
  0
LINE
  5
A4
330
43
100
AcDbEntity
  8
0
  6
Continuous
 62
     3
100
AcDbLine
 10
392.7827832629662
 20
937.2794846314878
 30
0.0
 11
392.7827832629662
 21
937.0197206314879
 31
0.0
  0
LINE
  5
A5
330
43
100
AcDbEntity
  8
0
  6
Continuous
 62
     3
100
AcDbLine
 10
392.7827832629662
 20
937.0197206314879
 30
0.0
 11
387.6627872629662
 21
937.0197206314879
 31
0.0
  0
LINE
  5
A6
330
43
100
AcDbEntity
  8
0
  6
Continuous
 62
     3
100
AcDbLine
 10
387.6627872629662
 20
937.0197206314879
 30
0.0
 11
387.6627872629662
 21
935.4093686314877
 31
0.0
  0
LINE
  5
A7
330
43
100
AcDbEntity
  8
0
  6
Continuous
 62
     3
100
AcDbLine
 10
387.6627872629662
 20
935.4093686314877
 30
0.0
 11
392.7827832629662
 21
935.4093686314877
 31
0.0
  0
LINE
  5
A8
330
43
100
AcDbEntity
  8
0
  6
Continuous
 62
     3
100
AcDbLine
 10
392.7827832629662
 20
935.4093686314877
 30
0.0
 11
392.7827832629662
 21
935.1496026314878
 31
0.0
  0
LINE
  5
A9
330
43
100
AcDbEntity
  8
0
  6
Continuous
 62
     3
100
AcDbLine
 10
392.7827832629662
 20
935.1496026314878
 30
0.0
 11
387.6627872629662
 21
935.1496026314878
 31
0.0
  0
LINE
  5
AA
330
43
100
AcDbEntity
  8
0
  6
Continuous
 62
     3
100
AcDbLine
 10
387.6627872629662
 20
935.1496026314878
 30
0.0
 11
387.6627872629662
 21
933.5397386314878
 31
0.0
  0
LINE
  5
AB
330
43
100
AcDbEntity
  8
0
  6
Continuous
 62
     3
100
AcDbLine
 10
387.6627872629662
 20
933.5397386314878
 30
0.0
 11
392.7827832629662
 21
933.5397386314878
 31
0.0
  0
LINE
  5
AC
330
43
100
AcDbEntity
  8
0
  6
Continuous
 62
     3
100
AcDbLine
 10
392.7827832629662
 20
933.5397386314878
 30
0.0
 11
392.7827832629662
 21
933.2794846314878
 31
0.0
  0
LINE
  5
AD
330
43
100
AcDbEntity
  8
0
  6
Continuous
 62
     3
100
AcDbLine
 10
392.7827832629662
 20
933.2794846314878
 30
0.0
 11
386.5823432629662
 21
933.2794846314878
 31
0.0
  0
LINE
  5
AE
330
43
100
AcDbEntity
  8
0
  6
Continuous
 62
     3
100
AcDbLine
 10
386.5823432629662
 20
933.2794846314878
 30
0.0
 11
386.5823432629662
 21
937.2794846314878
 31
0.0
  0
LINE
  5
AF
330
43
100
AcDbEntity
  8
0
  6
Continuous
 62
     3
100
AcDbLine
 10
394.5824652629663
 20
937.2794846314878
 30
0.0
 11
400.7821732629662
 21
937.2794846314878
 31
0.0
  0
LINE
  5
B0
330
43
100
AcDbEntity
  8
0
  6
Continuous
 62
     3
100
AcDbLine
 10
400.7821732629662
 20
937.2794846314878
 30
0.0
 11
400.7821732629662
 21
936.8898366314877
 31
0.0
  0
LINE
  5
B1
330
43
100
AcDbEntity
  8
0
  6
Continuous
 62
     3
100
AcDbLine
 10
400.7821732629662
 20
936.8898366314877
 30
0.0
 11
395.1997752629662
 21
933.5397386314878
 31
0.0
  0
LINE
  5
B2
330
43
100
AcDbEntity
  8
0
  6
Continuous
 62
     3
100
AcDbLine
 10
395.1997752629662
 20
933.5397386314878
 30
0.0
 11
400.7821732629662
 21
933.5397386314878
 31
0.0
  0
LINE
  5
B3
330
43
100
AcDbEntity
  8
0
  6
Continuous
 62
     3
100
AcDbLine
 10
400.7821732629662
 20
933.5397386314878
 30
0.0
 11
400.7821732629662
 21
933.2794846314878
 31
0.0
  0
LINE
  5
B4
330
43
100
AcDbEntity
  8
0
  6
Continuous
 62
     3
100
AcDbLine
 10
400.7821732629662
 20
933.2794846314878
 30
0.0
 11
394.5824652629663
 21
933.2794846314878
 31
0.0
  0
LINE
  5
B5
330
43
100
AcDbEntity
  8
0
  6
Continuous
 62
     3
100
AcDbLine
 10
394.5824652629663
 20
933.2794846314878
 30
0.0
 11
394.5824652629663
 21
933.6696226314878
 31
0.0
  0
LINE
  5
B6
330
43
100
AcDbEntity
  8
0
  6
Continuous
 62
     3
100
AcDbLine
 10
394.5824652629663
 20
933.6696226314878
 30
0.0
 11
400.1655952629662
 21
937.0197206314879
 31
0.0
  0
LINE
  5
B7
330
43
100
AcDbEntity
  8
0
  6
Continuous
 62
     3
100
AcDbLine
 10
400.1655952629662
 20
937.0197206314879
 30
0.0
 11
394.5824652629663
 21
937.0197206314879
 31
0.0
  0
LINE
  5
B8
330
43
100
AcDbEntity
  8
0
  6
Continuous
 62
     3
100
AcDbLine
 10
394.5824652629663
 20
937.0197206314879
 30
0.0
 11
394.5824652629663
 21
937.2794846314878
 31
0.0
  0
LINE
  5
B9
330
43
100
AcDbEntity
  8
0
  6
Continuous
 62
     3
100
AcDbLine
 10
402.5825872629662
 20
937.2794846314878
 30
0.0
 11
408.7822952629663
 21
937.2794846314878
 31
0.0
  0
LINE
  5
BA
330
43
100
AcDbEntity
  8
0
  6
Continuous
 62
     3
100
AcDbLine
 10
408.7822952629663
 20
937.2794846314878
 30
0.0
 11
408.7822952629663
 21
937.0197206314879
 31
0.0
  0
LINE
  5
BB
330
43
100
AcDbEntity
  8
0
  6
Continuous
 62
     3
100
AcDbLine
 10
408.7822952629663
 20
937.0197206314879
 30
0.0
 11
403.6622992629663
 21
937.0197206314879
 31
0.0
  0
LINE
  5
BC
330
43
100
AcDbEntity
  8
0
  6
Continuous
 62
     3
100
AcDbLine
 10
403.6622992629663
 20
937.0197206314879
 30
0.0
 11
403.6622992629663
 21
935.4093686314877
 31
0.0
  0
LINE
  5
BD
330
43
100
AcDbEntity
  8
0
  6
Continuous
 62
     3
100
AcDbLine
 10
403.6622992629663
 20
935.4093686314877
 30
0.0
 11
408.7822952629663
 21
935.4093686314877
 31
0.0
  0
LINE
  5
BE
330
43
100
AcDbEntity
  8
0
  6
Continuous
 62
     3
100
AcDbLine
 10
408.7822952629663
 20
935.4093686314877
 30
0.0
 11
408.7822952629663
 21
935.1496026314878
 31
0.0
  0
LINE
  5
BF
330
43
100
AcDbEntity
  8
0
  6
Continuous
 62
     3
100
AcDbLine
 10
408.7822952629663
 20
935.1496026314878
 30
0.0
 11
403.6622992629663
 21
935.1496026314878
 31
0.0
  0
LINE
  5
C0
330
43
100
AcDbEntity
  8
0
  6
Continuous
 62
     3
100
AcDbLine
 10
403.6622992629663
 20
935.1496026314878
 30
0.0
 11
403.6622992629663
 21
933.5397386314878
 31
0.0
  0
LINE
  5
C1
330
43
100
AcDbEntity
  8
0
  6
Continuous
 62
     3
100
AcDbLine
 10
403.6622992629663
 20
933.5397386314878
 30
0.0
 11
408.7822952629663
 21
933.5397386314878
 31
0.0
  0
LINE
  5
C2
330
43
100
AcDbEntity
  8
0
  6
Continuous
 62
     3
100
AcDbLine
 10
408.7822952629663
 20
933.5397386314878
 30
0.0
 11
408.7822952629663
 21
933.2794846314878
 31
0.0
  0
LINE
  5
C3
330
43
100
AcDbEntity
  8
0
  6
Continuous
 62
     3
100
AcDbLine
 10
408.7822952629663
 20
933.2794846314878
 30
0.0
 11
402.5825872629662
 21
933.2794846314878
 31
0.0
  0
LINE
  5
C4
330
43
100
AcDbEntity
  8
0
  6
Continuous
 62
     3
100
AcDbLine
 10
402.5825872629662
 20
933.2794846314878
 30
0.0
 11
402.5825872629662
 21
937.2794846314878
 31
0.0
  0
LINE
  5
C5
330
43
100
AcDbEntity
  8
0
  6
Continuous
 62
     3
100
AcDbLine
 10
376.1226272629663
 20
939.0392506314881
 30
0.0
 11
410.7619092629662
 21
939.0392506314881
 31
0.0
  0
LINE
  5
C6
330
43
100
AcDbEntity
  8
0
  6
Continuous
 62
     3
100
AcDbLine
 10
412.1424012629663
 20
938.4059506314877
 30
0.0
 11
412.1424012629663
 21
932.2731386314879
 31
0.0
  0
LINE
  5
C7
330
43
100
AcDbEntity
  8
0
  6
Continuous
 62
     3
100
AcDbLine
 10
410.7619092629661
 20
931.639348631488
 30
0.0
 11
376.122627262966
 21
931.639348631488
 31
0.0
  0
LINE
  5
C8
330
43
100
AcDbEntity
  8
0
  6
Continuous
 62
     3
100
AcDbLine
 10
374.7421332629663
 20
932.2731386314879
 30
0.0
 11
374.7421332629663
 21
938.3532166314878
 31
0.0
  0
LINE
  5
C9
330
43
100
AcDbEntity
  8
0
  6
Continuous
 62
     3
100
AcDbLine
 10
374.7421332629663
 20
938.3532166314878
 30
0.0
 11
374.7791212629662
 21
938.4474546314877
 31
0.0
  0
LINE
  5
CA
330
43
100
AcDbEntity
  8
0
  6
Continuous
 62
     3
100
AcDbLine
 10
376.1226272629663
 20
938.7794846314878
 30
0.0
 11
410.7619092629662
 21
938.7794846314878
 31
0.0
  0
LINE
  5
CB
330
43
100
AcDbEntity
  8
0
  6
Continuous
 62
     3
100
AcDbLine
 10
411.0625672629662
 20
938.4796806314878
 30
0.0
 11
411.0625672629662
 21
932.1994066314878
 31
0.0
  0
LINE
  5
CC
330
43
100
AcDbEntity
  8
0
  6
Continuous
 62
     3
100
AcDbLine
 10
410.7619092629662
 20
931.8996026314878
 30
0.0
 11
376.1226272629663
 21
931.8996026314878
 31
0.0
  0
LINE
  5
CD
330
43
100
AcDbEntity
  8
0
  6
Continuous
 62
     3
100
AcDbLine
 10
375.8226992629662
 20
932.1994066314878
 30
0.0
 11
375.8226992629662
 21
938.4796806314878
 31
0.0
  0
LINE
  5
CE
330
43
100
AcDbEntity
  8
0
  6
Continuous
 62
     3
100
AcDbLine
 10
415.209967262966
 20
933.407414631488
 30
0.0
 11
411.6744452629662
 21
929.871770631488
 31
0.0
  0
LINE
  5
CF
330
43
100
AcDbEntity
  8
0
  6
Continuous
 62
     3
100
AcDbLine
 10
415.2098452629662
 20
929.871770631488
 30
0.0
 11
411.6743232629661
 21
933.407414631488
 31
0.0
  0
LINE
  5
D0
330
43
100
AcDbEntity
  8
0
  6
Continuous
 62
     3
100
AcDbLine
 10
375.209845262966
 20
933.407414631488
 30
0.0
 11
371.6743232629661
 21
929.871770631488
 31
0.0
  0
LINE
  5
D1
330
43
100
AcDbEntity
  8
0
  6
Continuous
 62
     3
100
AcDbLine
 10
375.209723262966
 20
929.871770631488
 30
0.0
 11
371.6742012629661
 21
933.407414631488
 31
0.0
  0
LINE
  5
D2
330
43
100
AcDbEntity
  8
0
  6
Continuous
 62
     1
100
AcDbLine
 10
363.4422672629661
 20
983.6393486314893
 30
0.0
 11
363.4422672629661
 21
983.037113360792
 31
0.0
  0
LINE
  5
D3
330
43
100
AcDbEntity
  8
0
  6
Continuous
 62
     1
100
AcDbLine
 10
423.4422672629663
 20
923.6393486314879
 30
0.0
 11
423.4422672629663
 21
924.2415839021829
 31
0.0
  0
LINE
  5
D4
330
43
100
AcDbEntity
  8
0
  6
Continuous
 62
     4
100
AcDbLine
 10
363.4422672629661
 20
983.037113360792
 30
0.0
 11
423.4422672629663
 21
983.037113360792
 31
0.0
  0
LINE
  5
D5
330
43
100
AcDbEntity
  8
0
  6
Continuous
 62
     1
100
AcDbLine
 10
423.4422672629663
 20
924.2415839021829
 30
0.0
 11
423.4422672629663
 21
983.037113360792
 31
0.0
  0
LINE
  5
D6
330
43
100
AcDbEntity
  8
0
  6
Continuous
 62
     1
100
AcDbLine
 10
363.4422672629661
 20
924.2415839021829
 30
0.0
 11
363.4422672629661
 21
923.6393486314879
 31
0.0
  0
LINE
  5
D7
330
43
100
AcDbEntity
  8
0
  6
Continuous
 62
     1
100
AcDbLine
 10
363.4422672629661
 20
924.2415839021829
 30
0.0
 11
363.4422672629661
 21
983.037113360792
 31
0.0
  0
LINE
  5
D8
330
43
100
AcDbEntity
  8
0
  6
Continuous
 62
     4
100
AcDbLine
 10
363.4422672629661
 20
983.6393486314893
 30
0.0
 11
423.4422672629663
 21
983.6393486314893
 31
0.0
  0
LINE
  5
D9
330
43
100
AcDbEntity
  8
0
  6
Continuous
 62
     1
100
AcDbLine
 10
423.4422672629663
 20
983.037113360792
 30
0.0
 11
423.4422672629663
 21
983.6393486314893
 31
0.0
  0
LINE
  5
DA
330
43
100
AcDbEntity
  8
0
  6
Continuous
 62
     4
100
AcDbLine
 10
363.4422672629661
 20
924.2415839021829
 30
0.0
 11
423.4422672629663
 21
924.2415839021829
 31
0.0
  0
LINE
  5
DB
330
43
100
AcDbEntity
  8
0
  6
Continuous
 62
     4
100
AcDbLine
 10
363.4422672629661
 20
923.6393486314879
 30
0.0
 11
423.4422672629663
 21
923.6393486314879
 31
0.0
  0
LINE
  5
DC
330
43
100
AcDbEntity
  8
1
  6
DASH_CENTER
 62
     3
100
AcDbLine
 10
365.6422672629661
 20
931.639348631488
 30
0.0
 11
381.2422672629662
 21
931.639348631488
 31
0.0
  0
LINE
  5
DD
330
43
100
AcDbEntity
  8
1
  6
DASH_CENTER
 62
     3
100
AcDbLine
 10
373.4422672629661
 20
939.439348631488
 30
0.0
 11
373.4422672629661
 21
923.8393486314889
 31
0.0
  0
LINE
  5
DE
330
43
100
AcDbEntity
  8
1
  6
DASH_CENTER
 62
     3
100
AcDbLine
 10
365.6422672629661
 20
975.6393486314884
 30
0.0
 11
381.2422672629663
 21
975.6393486314884
 31
0.0
  0
LINE
  5
DF
330
43
100
AcDbEntity
  8
1
  6
DASH_CENTER
 62
     3
100
AcDbLine
 10
373.4422672629661
 20
983.4393486314885
 30
0.0
 11
373.4422672629661
 21
967.8393486314884
 31
0.0
  0
LINE
  5
E0
330
43
100
AcDbEntity
  8
1
  6
DASH_CENTER
 62
     3
100
AcDbLine
 10
405.6422672629665
 20
953.639348631488
 30
0.0
 11
421.2422672629659
 21
953.639348631488
 31
0.0
  0
LINE
  5
E1
330
43
100
AcDbEntity
  8
1
  6
DASH_CENTER
 62
     3
100
AcDbLine
 10
413.4422672629661
 20
961.4393486314881
 30
0.0
 11
413.4422672629661
 21
945.839348631489
 31
0.0
  0
LINE
  5
E2
330
43
100
AcDbEntity
  8
1
  6
DASH_CENTER
 62
     3
100
AcDbLine
 10
366.2797538434114
 20
953.639348631488
 30
0.0
 11
380.5721358788372
 21
953.639348631488
 31
0.0
  0
LINE
  5
E3
330
43
100
AcDbEntity
  8
1
  6
DASH_CENTER
 62
     3
100
AcDbLine
 10
373.4422672629661
 20
961.4393486314885
 30
0.0
 11
373.4422672629661
 21
945.839348631488
 31
0.0
  0
LINE
  5
E4
330
43
100
AcDbEntity
  8
1
  6
DASH_CENTER
 62
     3
100
AcDbLine
 10
405.6422672629661
 20
975.6393486314884
 30
0.0
 11
421.2422672629663
 21
975.6393486314884
 31
0.0
  0
LINE
  5
E5
330
43
100
AcDbEntity
  8
1
  6
DASH_CENTER
 62
     3
100
AcDbLine
 10
413.4422672629661
 20
983.4393486314885
 30
0.0
 11
413.4422672629661
 21
967.8393486314884
 31
0.0
  0
LINE
  5
E6
330
43
100
AcDbEntity
  8
1
  6
DASH_CENTER
 62
     3
100
AcDbLine
 10
405.6422672629665
 20
931.639348631488
 30
0.0
 11
421.2422672629659
 21
931.639348631488
 31
0.0
  0
LINE
  5
E7
330
43
100
AcDbEntity
  8
1
  6
DASH_CENTER
 62
     3
100
AcDbLine
 10
413.4422672629661
 20
939.439348631488
 30
0.0
 11
413.4422672629661
 21
923.8393486314889
 31
0.0
  0
LINE
  5
E8
330
43
100
AcDbEntity
  8
1
  6
Continuous
 62
     1
100
AcDbLine
 10
137.4412292629663
 20
991.639836631488
 30
0.0
 11
780.3288582445113
 21
991.639836631488
 31
0.0
  0
LINE
  5
E9
330
43
100
AcDbEntity
  8
1
  6
Continuous
 62
     1
100
AcDbLine
 10
214.4412292629663
 20
914.639836631488
 30
0.0
 11
780.3342053576131
 21
914.639836631488
 31
0.0
  0
LINE
  5
EA
330
43
100
AcDbEntity
  8
1
  6
Continuous
 62
     1
100
AcDbLine
 10
306.4412292629663
 20
822.639836631488
 30
0.0
 11
780.3471819646903
 21
822.639836631488
 31
0.0
  0
LINE
  5
EB
330
43
100
AcDbEntity
  8
1
  6
Continuous
 62
     1
100
AcDbLine
 10
137.4412292629663
 20
991.639836631488
 30
0.0
 11
137.4412292629663
 21
788.482074631488
 31
0.0
  0
LINE
  5
EC
330
43
100
AcDbEntity
  8
1
  6
Continuous
 62
     1
100
AcDbLine
 10
214.4412292629663
 20
914.639836631488
 30
0.0
 11
214.4412292629663
 21
788.482074631488
 31
0.0
  0
LINE
  5
ED
330
43
100
AcDbEntity
  8
0
  6
DASH_CENTER
 62
     3
100
AcDbLine
 10
214.4412292629663
 20
788.482074631488
 30
0.0
 11
214.4412892629663
 21
788.482074631488
 31
0.0
  0
LINE
  5
EE
330
43
100
AcDbEntity
  8
1
  6
Continuous
 62
     1
100
AcDbLine
 10
306.4412292629663
 20
822.639836631488
 30
0.0
 11
306.4412292629663
 21
788.482074631488
 31
0.0
  0
LINE
  5
EF
330
43
100
AcDbEntity
  8
1
  6
Continuous
 62
     1
100
AcDbLine
 10
306.4412292629663
 20
822.639836631488
 30
0.0
 11
137.4412292629663
 21
991.639836631488
 31
0.0
  0
LINE
  5
F0
330
43
100
AcDbEntity
  8
1
  6
Continuous
 62
     1
100
AcDbLine
 10
763.9300782445113
 20
903.639836631488
 30
0.0
 11
780.3353198074094
 21
903.639836631488
 31
0.0
  0
LINE
  5
F1
330
43
100
AcDbEntity
  8
1
  6
Continuous
 62
     1
100
AcDbLine
 10
137.4347677000682
 20
644.0
 30
0.0
 11
153.8400092629663
 21
644.0
 31
0.0
  0
LINE
  5
F2
330
43
100
AcDbEntity
  8
1
  6
Continuous
 62
     1
100
AcDbLine
 10
780.3288582445113
 20
732.0
 30
0.0
 11
611.3288582445113
 21
563.0
 31
0.0
  0
LINE
  5
F3
330
43
100
AcDbEntity
  8
1
  6
Continuous
 62
     1
100
AcDbLine
 10
611.3288582445113
 20
528.842238
 30
0.0
 11
611.3288582445113
 21
563.0
 31
0.0
  0
LINE
  5
F4
330
43
100
AcDbEntity
  8
0
  6
DASH_CENTER
 62
     3
100
AcDbLine
 10
703.3287982445112
 20
528.842238
 30
0.0
 11
703.3288582445113
 21
528.842238
 31
0.0
  0
LINE
  5
F5
330
43
100
AcDbEntity
  8
1
  6
Continuous
 62
     1
100
AcDbLine
 10
703.3288582445113
 20
528.842238
 30
0.0
 11
703.3288582445113
 21
655.0
 31
0.0
  0
LINE
  5
F6
330
43
100
AcDbEntity
  8
1
  6
Continuous
 62
     1
100
AcDbLine
 10
780.3288582445113
 20
528.842238
 30
0.0
 11
780.3288582445113
 21
732.0
 31
0.0
  0
LINE
  5
F7
330
43
100
AcDbEntity
  8
1
  6
Continuous
 62
     1
100
AcDbLine
 10
137.4229055427873
 20
563.0
 30
0.0
 11
611.3288582445113
 21
563.0
 31
0.0
  0
LINE
  5
F8
330
43
100
AcDbEntity
  8
1
  6
Continuous
 62
     1
100
AcDbLine
 10
137.4358821498645
 20
655.0
 30
0.0
 11
703.3288582445113
 21
655.0
 31
0.0
  0
LINE
  5
F9
330
43
100
AcDbEntity
  8
1
  6
Continuous
 62
     1
100
AcDbLine
 10
137.4412292629663
 20
732.0
 30
0.0
 11
780.3288582445113
 21
732.0
 31
0.0
  0
LINE
  5
FA
330
43
100
AcDbEntity
  8
0
  6
Continuous
 62
     4
100
AcDbLine
 10
494.3278202445114
 20
663.9995119999999
 30
0.0
 11
554.3278202445114
 21
663.9995119999999
 31
0.0
  0
LINE
  5
FB
330
43
100
AcDbEntity
  8
0
  6
Continuous
 62
     4
100
AcDbLine
 10
494.3278202445114
 20
664.6017472706949
 30
0.0
 11
554.3278202445114
 21
664.6017472706949
 31
0.0
  0
LINE
  5
FC
330
43
100
AcDbEntity
  8
0
  6
Continuous
 62
     1
100
AcDbLine
 10
494.3278202445114
 20
723.9995120000012
 30
0.0
 11
494.3278202445114
 21
723.3972767293039
 31
0.0
  0
LINE
  5
FD
330
43
100
AcDbEntity
  8
0
  6
Continuous
 62
     4
100
AcDbLine
 10
494.3278202445114
 20
723.9995120000012
 30
0.0
 11
554.3278202445114
 21
723.9995120000012
 31
0.0
  0
LINE
  5
FE
330
43
100
AcDbEntity
  8
0
  6
Continuous
 62
     1
100
AcDbLine
 10
554.3278202445114
 20
723.3972767293039
 30
0.0
 11
554.3278202445114
 21
664.6017472706949
 31
0.0
  0
LINE
  5
FF
330
43
100
AcDbEntity
  8
0
  6
Continuous
 62
     1
100
AcDbLine
 10
554.3278202445114
 20
663.9995119999999
 30
0.0
 11
554.3278202445114
 21
664.6017472706949
 31
0.0
  0
LINE
  5
100
330
43
100
AcDbEntity
  8
0
  6
Continuous
 62
     1
100
AcDbLine
 10
494.3278202445114
 20
723.3972767293039
 30
0.0
 11
494.3278202445114
 21
664.6017472706949
 31
0.0
  0
LINE
  5
101
330
43
100
AcDbEntity
  8
0
  6
Continuous
 62
     4
100
AcDbLine
 10
494.3278202445114
 20
723.3972767293039
 30
0.0
 11
554.3278202445114
 21
723.3972767293039
 31
0.0
  0
LINE
  5
102
330
43
100
AcDbEntity
  8
0
  6
Continuous
 62
     1
100
AcDbLine
 10
494.3278202445114
 20
664.6017472706949
 30
0.0
 11
494.3278202445114
 21
663.9995119999999
 31
0.0
  0
LINE
  5
103
330
43
100
AcDbEntity
  8
0
  6
Continuous
 62
     1
100
AcDbLine
 10
554.3278202445114
 20
723.3972767293039
 30
0.0
 11
554.3278202445114
 21
723.9995120000012
 31
0.0
  0
LINE
  5
104
330
43
100
AcDbEntity
  8
0
  6
Continuous
 62
     3
100
AcDbLine
 10
546.0958862445115
 20
673.767578
 30
0.0
 11
542.5603642445116
 21
670.2319339999999
 31
0.0
  0
LINE
  5
105
330
43
100
AcDbEntity
  8
0
  6
Continuous
 62
     3
100
AcDbLine
 10
546.0957642445115
 20
670.2319339999999
 30
0.0
 11
542.5602422445116
 21
673.767578
 31
0.0
  0
LINE
  5
106
330
43
100
AcDbEntity
  8
0
  6
Continuous
 62
     3
100
AcDbLine
 10
506.0957642445115
 20
673.767578
 30
0.0
 11
502.5602422445114
 21
670.2319339999999
 31
0.0
  0
LINE
  5
107
330
43
100
AcDbEntity
  8
0
  6
Continuous
 62
     3
100
AcDbLine
 10
506.0956422445114
 20
670.2319339999999
 30
0.0
 11
502.5601202445115
 21
673.767578
 31
0.0
  0
LINE
  5
108
330
43
100
AcDbEntity
  8
0
  6
Continuous
 62
     3
100
AcDbLine
 10
506.7082522445113
 20
672.5595699999998
 30
0.0
 11
506.7082522445113
 21
678.8398439999997
 31
0.0
  0
LINE
  5
109
330
43
100
AcDbEntity
  8
0
  6
Continuous
 62
     3
100
AcDbLine
 10
541.6474622445113
 20
672.2597659999998
 30
0.0
 11
507.0081802445114
 21
672.2597659999998
 31
0.0
  0
LINE
  5
10A
330
43
100
AcDbEntity
  8
0
  6
Continuous
 62
     3
100
AcDbLine
 10
541.9481202445114
 20
678.8398439999997
 30
0.0
 11
541.9481202445114
 21
672.5595699999998
 31
0.0
  0
LINE
  5
10B
330
43
100
AcDbEntity
  8
0
  6
Continuous
 62
     3
100
AcDbLine
 10
507.0081802445114
 20
679.1396479999997
 30
0.0
 11
541.6474622445113
 21
679.1396479999997
 31
0.0
  0
LINE
  5
10C
330
43
100
AcDbEntity
  8
0
  6
Continuous
 62
     3
100
AcDbLine
 10
505.6276862445114
 20
678.7133799999998
 30
0.0
 11
505.6646742445115
 21
678.8076179999997
 31
0.0
  0
LINE
  5
10D
330
43
100
AcDbEntity
  8
0
  6
Continuous
 62
     3
100
AcDbLine
 10
505.6276862445112
 20
672.6333019999998
 30
0.0
 11
505.6276862445114
 21
678.7133799999998
 31
0.0
  0
LINE
  5
10E
330
43
100
AcDbEntity
  8
0
  6
Continuous
 62
     3
100
AcDbLine
 10
541.6474622445113
 20
671.999512
 30
0.0
 11
507.0081802445112
 21
671.999512
 31
0.0
  0
LINE
  5
10F
330
43
100
AcDbEntity
  8
0
  6
Continuous
 62
     3
100
AcDbLine
 10
543.0279542445115
 20
678.7661139999997
 30
0.0
 11
543.0279542445113
 21
672.6333019999998
 31
0.0
  0
LINE
  5
110
330
43
100
AcDbEntity
  8
0
  6
Continuous
 62
     3
100
AcDbLine
 10
507.0081802445114
 20
679.3994140000001
 30
0.0
 11
541.6474622445113
 21
679.3994140000001
 31
0.0
  0
LINE
  5
111
330
43
100
AcDbEntity
  8
0
  6
Continuous
 62
     3
100
AcDbLine
 10
533.4681402445113
 20
673.6396479999997
 30
0.0
 11
533.4681402445113
 21
677.6396479999997
 31
0.0
  0
LINE
  5
112
330
43
100
AcDbEntity
  8
0
  6
Continuous
 62
     3
100
AcDbLine
 10
539.6678482445114
 20
673.6396479999997
 30
0.0
 11
533.4681402445113
 21
673.6396479999997
 31
0.0
  0
LINE
  5
113
330
43
100
AcDbEntity
  8
0
  6
Continuous
 62
     3
100
AcDbLine
 10
539.6678482445114
 20
673.8999019999998
 30
0.0
 11
539.6678482445114
 21
673.6396479999997
 31
0.0
  0
LINE
  5
114
330
43
100
AcDbEntity
  8
0
  6
Continuous
 62
     3
100
AcDbLine
 10
534.5478522445113
 20
673.8999019999998
 30
0.0
 11
539.6678482445114
 21
673.8999019999998
 31
0.0
  0
LINE
  5
115
330
43
100
AcDbEntity
  8
0
  6
Continuous
 62
     3
100
AcDbLine
 10
534.5478522445115
 20
675.5097659999998
 30
0.0
 11
534.5478522445113
 21
673.8999019999998
 31
0.0
  0
LINE
  5
116
330
43
100
AcDbEntity
  8
0
  6
Continuous
 62
     3
100
AcDbLine
 10
539.6678482445114
 20
675.5097659999998
 30
0.0
 11
534.5478522445115
 21
675.5097659999998
 31
0.0
  0
LINE
  5
117
330
43
100
AcDbEntity
  8
0
  6
Continuous
 62
     3
100
AcDbLine
 10
539.6678482445114
 20
675.7695319999997
 30
0.0
 11
539.6678482445114
 21
675.5097659999998
 31
0.0
  0
LINE
  5
118
330
43
100
AcDbEntity
  8
0
  6
Continuous
 62
     3
100
AcDbLine
 10
534.5478522445115
 20
675.7695319999997
 30
0.0
 11
539.6678482445114
 21
675.7695319999997
 31
0.0
  0
LINE
  5
119
330
43
100
AcDbEntity
  8
0
  6
Continuous
 62
     3
100
AcDbLine
 10
534.5478522445115
 20
677.3798839999998
 30
0.0
 11
534.5478522445115
 21
675.7695319999997
 31
0.0
  0
LINE
  5
11A
330
43
100
AcDbEntity
  8
0
  6
Continuous
 62
     3
100
AcDbLine
 10
539.6678482445114
 20
677.3798839999998
 30
0.0
 11
534.5478522445115
 21
677.3798839999998
 31
0.0
  0
LINE
  5
11B
330
43
100
AcDbEntity
  8
0
  6
Continuous
 62
     3
100
AcDbLine
 10
539.6678482445114
 20
677.6396479999997
 30
0.0
 11
539.6678482445114
 21
677.3798839999998
 31
0.0
  0
LINE
  5
11C
330
43
100
AcDbEntity
  8
0
  6
Continuous
 62
     3
100
AcDbLine
 10
533.4681402445113
 20
677.6396479999997
 30
0.0
 11
539.6678482445114
 21
677.6396479999997
 31
0.0
  0
LINE
  5
11D
330
43
100
AcDbEntity
  8
0
  6
Continuous
 62
     3
100
AcDbLine
 10
525.4680182445114
 20
677.3798839999998
 30
0.0
 11
525.4680182445114
 21
677.6396479999997
 31
0.0
  0
LINE
  5
11E
330
43
100
AcDbEntity
  8
0
  6
Continuous
 62
     3
100
AcDbLine
 10
531.0511482445114
 20
677.3798839999998
 30
0.0
 11
525.4680182445114
 21
677.3798839999998
 31
0.0
  0
LINE
  5
11F
330
43
100
AcDbEntity
  8
0
  6
Continuous
 62
     3
100
AcDbLine
 10
525.4680182445114
 20
674.0297859999997
 30
0.0
 11
531.0511482445114
 21
677.3798839999998
 31
0.0
  0
LINE
  5
120
330
43
100
AcDbEntity
  8
0
  6
Continuous
 62
     3
100
AcDbLine
 10
525.4680182445114
 20
673.6396479999997
 30
0.0
 11
525.4680182445114
 21
674.0297859999997
 31
0.0
  0
LINE
  5
121
330
43
100
AcDbEntity
  8
0
  6
Continuous
 62
     3
100
AcDbLine
 10
531.6677262445113
 20
673.6396479999997
 30
0.0
 11
525.4680182445114
 21
673.6396479999997
 31
0.0
  0
LINE
  5
122
330
43
100
AcDbEntity
  8
0
  6
Continuous
 62
     3
100
AcDbLine
 10
531.6677262445113
 20
673.8999019999998
 30
0.0
 11
531.6677262445113
 21
673.6396479999997
 31
0.0
  0
LINE
  5
123
330
43
100
AcDbEntity
  8
0
  6
Continuous
 62
     3
100
AcDbLine
 10
526.0853282445115
 20
673.8999019999998
 30
0.0
 11
531.6677262445113
 21
673.8999019999998
 31
0.0
  0
LINE
  5
124
330
43
100
AcDbEntity
  8
0
  6
Continuous
 62
     3
100
AcDbLine
 10
531.6677262445113
 20
677.2499999999997
 30
0.0
 11
526.0853282445115
 21
673.8999019999998
 31
0.0
  0
LINE
  5
125
330
43
100
AcDbEntity
  8
0
  6
Continuous
 62
     3
100
AcDbLine
 10
531.6677262445113
 20
677.6396479999997
 30
0.0
 11
531.6677262445113
 21
677.2499999999997
 31
0.0
  0
LINE
  5
126
330
43
100
AcDbEntity
  8
0
  6
Continuous
 62
     3
100
AcDbLine
 10
525.4680182445114
 20
677.6396479999997
 30
0.0
 11
531.6677262445113
 21
677.6396479999997
 31
0.0
  0
LINE
  5
127
330
43
100
AcDbEntity
  8
0
  6
Continuous
 62
     3
100
AcDbLine
 10
517.4678962445115
 20
673.6396479999997
 30
0.0
 11
517.4678962445115
 21
677.6396479999997
 31
0.0
  0
LINE
  5
128
330
43
100
AcDbEntity
  8
0
  6
Continuous
 62
     3
100
AcDbLine
 10
523.6683362445114
 20
673.6396479999997
 30
0.0
 11
517.4678962445115
 21
673.6396479999997
 31
0.0
  0
LINE
  5
129
330
43
100
AcDbEntity
  8
0
  6
Continuous
 62
     3
100
AcDbLine
 10
523.6683362445114
 20
673.8999019999998
 30
0.0
 11
523.6683362445114
 21
673.6396479999997
 31
0.0
  0
LINE
  5
12A
330
43
100
AcDbEntity
  8
0
  6
Continuous
 62
     3
100
AcDbLine
 10
518.5483402445115
 20
673.8999019999998
 30
0.0
 11
523.6683362445114
 21
673.8999019999998
 31
0.0
  0
LINE
  5
12B
330
43
100
AcDbEntity
  8
0
  6
Continuous
 62
     3
100
AcDbLine
 10
518.5483402445115
 20
675.5097659999998
 30
0.0
 11
518.5483402445115
 21
673.8999019999998
 31
0.0
  0
LINE
  5
12C
330
43
100
AcDbEntity
  8
0
  6
Continuous
 62
     3
100
AcDbLine
 10
523.6683362445114
 20
675.5097659999998
 30
0.0
 11
518.5483402445115
 21
675.5097659999998
 31
0.0
  0
LINE
  5
12D
330
43
100
AcDbEntity
  8
0
  6
Continuous
 62
     3
100
AcDbLine
 10
523.6683362445114
 20
675.7695319999997
 30
0.0
 11
523.6683362445114
 21
675.5097659999998
 31
0.0
  0
LINE
  5
12E
330
43
100
AcDbEntity
  8
0
  6
Continuous
 62
     3
100
AcDbLine
 10
518.5483402445115
 20
675.7695319999997
 30
0.0
 11
523.6683362445114
 21
675.7695319999997
 31
0.0
  0
LINE
  5
12F
330
43
100
AcDbEntity
  8
0
  6
Continuous
 62
     3
100
AcDbLine
 10
518.5483402445115
 20
677.3798839999998
 30
0.0
 11
518.5483402445115
 21
675.7695319999997
 31
0.0
  0
LINE
  5
130
330
43
100
AcDbEntity
  8
0
  6
Continuous
 62
     3
100
AcDbLine
 10
523.6683362445114
 20
677.3798839999998
 30
0.0
 11
518.5483402445115
 21
677.3798839999998
 31
0.0
  0
LINE
  5
131
330
43
100
AcDbEntity
  8
0
  6
Continuous
 62
     3
100
AcDbLine
 10
523.6683362445114
 20
677.6396479999997
 30
0.0
 11
523.6683362445114
 21
677.3798839999998
 31
0.0
  0
LINE
  5
132
330
43
100
AcDbEntity
  8
0
  6
Continuous
 62
     3
100
AcDbLine
 10
517.4678962445115
 20
677.6396479999997
 30
0.0
 11
523.6683362445114
 21
677.6396479999997
 31
0.0
  0
LINE
  5
133
330
43
100
AcDbEntity
  8
0
  6
Continuous
 62
     3
100
AcDbLine
 10
508.9885262445115
 20
674.2729499999997
 30
0.0
 11
508.9885262445115
 21
677.0063479999998
 31
0.0
  0
LINE
  5
134
330
43
100
AcDbEntity
  8
0
  6
Continuous
 62
     3
100
AcDbLine
 10
513.8085942445115
 20
673.6396479999997
 30
0.0
 11
510.3682862445113
 21
673.6396479999997
 31
0.0
  0
LINE
  5
135
330
43
100
AcDbEntity
  8
0
  6
Continuous
 62
     3
100
AcDbLine
 10
515.1882342445116
 20
675.7695319999997
 30
0.0
 11
515.1882342445116
 21
674.2729499999997
 31
0.0
  0
LINE
  5
136
330
43
100
AcDbEntity
  8
0
  6
Continuous
 62
     3
100
AcDbLine
 10
512.3883062445115
 20
675.7695319999997
 30
0.0
 11
515.1882342445116
 21
675.7695319999997
 31
0.0
  0
LINE
  5
137
330
43
100
AcDbEntity
  8
0
  6
Continuous
 62
     3
100
AcDbLine
 10
512.3883062445115
 20
675.5097659999998
 30
0.0
 11
512.3883062445115
 21
675.7695319999997
 31
0.0
  0
LINE
  5
138
330
43
100
AcDbEntity
  8
0
  6
Continuous
 62
     3
100
AcDbLine
 10
514.1077882445112
 20
675.5097659999998
 30
0.0
 11
512.3883062445115
 21
675.5097659999998
 31
0.0
  0
LINE
  5
139
330
43
100
AcDbEntity
  8
0
  6
Continuous
 62
     3
100
AcDbLine
 10
514.1077882445112
 20
673.8999019999998
 30
0.0
 11
514.1077882445112
 21
675.5097659999998
 31
0.0
  0
LINE
  5
13A
330
43
100
AcDbEntity
  8
0
  6
Continuous
 62
     3
100
AcDbLine
 10
510.0683602445116
 20
673.8999019999998
 30
0.0
 11
514.1077882445112
 21
673.8999019999998
 31
0.0
  0
LINE
  5
13B
330
43
100
AcDbEntity
  8
0
  6
Continuous
 62
     3
100
AcDbLine
 10
510.0683602445116
 20
677.3798839999998
 30
0.0
 11
510.0683602445116
 21
673.8999019999998
 31
0.0
  0
LINE
  5
13C
330
43
100
AcDbEntity
  8
0
  6
Continuous
 62
     3
100
AcDbLine
 10
514.1077882445112
 20
677.3798839999998
 30
0.0
 11
510.0683602445116
 21
677.3798839999998
 31
0.0
  0
LINE
  5
13D
330
43
100
AcDbEntity
  8
0
  6
Continuous
 62
     3
100
AcDbLine
 10
514.1077882445114
 20
676.8798839999998
 30
0.0
 11
514.1077882445112
 21
677.3798839999998
 31
0.0
  0
LINE
  5
13E
330
43
100
AcDbEntity
  8
0
  6
Continuous
 62
     3
100
AcDbLine
 10
515.1882342445116
 20
676.8798839999998
 30
0.0
 11
514.1077882445114
 21
676.8798839999998
 31
0.0
  0
LINE
  5
13F
330
43
100
AcDbEntity
  8
0
  6
Continuous
 62
     3
100
AcDbLine
 10
515.1882342445116
 20
677.0063479999998
 30
0.0
 11
515.1882342445116
 21
676.8798839999998
 31
0.0
  0
LINE
  5
140
330
43
100
AcDbEntity
  8
0
  6
Continuous
 62
     3
100
AcDbLine
 10
510.3682862445113
 20
677.6396479999997
 30
0.0
 11
513.8085942445115
 21
677.6396479999997
 31
0.0
  0
LINE
  5
141
330
43
100
AcDbEntity
  8
1
  6
DOT_CENTER
 62
     3
100
AcDbLine
 10
553.3278202445114
 20
671.999512
 30
0.0
 11
535.3278202445116
 21
671.999512
 31
0.0
  0
LINE
  5
142
330
43
100
AcDbEntity
  8
1
  6
DOT_CENTER
 62
     3
100
AcDbLine
 10
513.3278202445114
 20
671.999512
 30
0.0
 11
495.3278202445114
 21
671.999512
 31
0.0
  0
LINE
  5
143
330
43
100
AcDbEntity
  8
1
  6
DOT_CENTER
 62
     3
100
AcDbLine
 10
504.3278202445114
 20
680.999512
 30
0.0
 11
504.3278202445114
 21
662.9995119999999
 31
0.0
  0
LINE
  5
144
330
43
100
AcDbEntity
  8
1
  6
DOT_CENTER
 62
     3
100
AcDbLine
 10
544.3278202445114
 20
680.999512
 30
0.0
 11
544.3278202445114
 21
662.9995119999999
 31
0.0
  0
LINE
  5
145
330
43
100
AcDbEntity
  8
0
  6
Continuous
 62
     3
100
AcDbLine
 10
506.0957642445115
 20
717.767578
 30
0.0
 11
502.5602422445114
 21
714.2319339999999
 31
0.0
  0
LINE
  5
146
330
43
100
AcDbEntity
  8
0
  6
Continuous
 62
     3
100
AcDbLine
 10
506.0956422445114
 20
714.2319339999999
 30
0.0
 11
502.5601202445115
 21
717.767578
 31
0.0
  0
LINE
  5
147
330
43
100
AcDbEntity
  8
0
  6
Continuous
 62
     3
100
AcDbLine
 10
546.0958862445115
 20
717.767578
 30
0.0
 11
542.5604862445113
 21
714.2319339999999
 31
0.0
  0
LINE
  5
148
330
43
100
AcDbEntity
  8
0
  6
Continuous
 62
     3
100
AcDbLine
 10
546.0956422445114
 20
714.2319339999999
 30
0.0
 11
542.5602422445114
 21
717.767578
 31
0.0
  0
LINE
  5
149
330
43
100
AcDbEntity
  8
1
  6
DOT_CENTER
 62
     3
100
AcDbLine
 10
513.3278202445114
 20
715.9995119999999
 30
0.0
 11
495.3278202445114
 21
715.9995119999999
 31
0.0
  0
LINE
  5
14A
330
43
100
AcDbEntity
  8
1
  6
DOT_CENTER
 62
     3
100
AcDbLine
 10
504.3278202445114
 20
724.9995119999999
 30
0.0
 11
504.3278202445114
 21
706.9995119999999
 31
0.0
  0
LINE
  5
14B
330
43
100
AcDbEntity
  8
1
  6
DOT_CENTER
 62
     3
100
AcDbLine
 10
553.3278202445114
 20
715.9995119999999
 30
0.0
 11
535.3278202445114
 21
715.9995119999999
 31
0.0
  0
LINE
  5
14C
330
43
100
AcDbEntity
  8
1
  6
DOT_CENTER
 62
     3
100
AcDbLine
 10
544.3278202445114
 20
724.9995119999999
 30
0.0
 11
544.3278202445114
 21
706.9995119999999
 31
0.0
  0
LINE
  5
14D
330
43
100
AcDbEntity
  8
0
  6
DASH_CENTER
 62
     3
100
AcDbLine
 10
137.4286151716957
 20
528.842238
 30
0.0
 11
786.8288582445113
 21
528.8422379999998
 31
0.0
  0
LINE
  5
14E
330
43
100
AcDbEntity
  8
0
  6
Continuous
 62
     4
100
AcDbLine
 10
513.3275762445113
 20
656.9995119999996
 30
0.0
 11
513.3275762445113
 21
663.9995119999999
 31
0.0
  0
LINE
  5
14F
330
43
100
AcDbEntity
  8
0
  6
Continuous
 62
     4
100
AcDbLine
 10
535.3273322445112
 20
656.9995119999996
 30
0.0
 11
535.3273322445112
 21
655.2636719999998
 31
0.0
  0
LINE
  5
150
330
43
100
AcDbEntity
  8
1
  6
Continuous
 62
     1
100
AcDbLine
 10
606.3287982445114
 20
644.0
 30
0.0
 11
692.3288582445113
 21
644.0
 31
0.0
  0
LINE
  5
151
330
43
100
AcDbEntity
  8
0
  6
Continuous
 62
     1
100
AcDbLine
 10
692.3288582445113
 20
644.0
 30
0.0
 11
692.3288582445113
 21
528.842238
 31
0.0
  0
LINE
  5
152
330
43
100
AcDbEntity
  8
0
  6
Continuous
 62
     1
100
AcDbLine
 10
703.3287982445112
 20
528.842238
 30
0.0
 11
703.3287982445112
 21
557.0004899999999
 31
0.0
  0
LINE
  5
153
330
43
100
AcDbEntity
  8
0
  6
Continuous
 62
     1
100
AcDbLine
 10
725.3287982445112
 20
528.842238
 30
0.0
 11
725.3287982445112
 21
557.0004899999999
 31
0.0
  0
LINE
  5
154
330
43
100
AcDbEntity
  8
0
  6
Continuous
 62
     1
100
AcDbLine
 10
703.3287982445112
 20
557.0004899999999
 30
0.0
 11
725.3287982445112
 21
557.0004899999999
 31
0.0
  0
LINE
  5
155
330
43
100
AcDbEntity
  8
0
  6
DOT_CENTER
 62
     3
100
AcDbLine
 10
714.3287982445112
 20
528.842238
 30
0.0
 11
714.3287982445112
 21
577.0004899999999
 31
0.0
  0
LINE
  5
156
330
43
100
AcDbEntity
  8
0
  6
Continuous
 62
     4
100
AcDbLine
 10
606.3287982445114
 20
644.1997059999999
 30
0.0
 11
603.3287982445114
 21
644.1997059999999
 31
0.0
  0
LINE
  5
157
330
43
100
AcDbEntity
  8
0
  6
Continuous
 62
     4
100
AcDbLine
 10
606.3287982445114
 20
614.200194
 30
0.0
 11
606.3287982445114
 21
644.1997059999999
 31
0.0
  0
LINE
  5
158
330
43
100
AcDbEntity
  8
0
  6
Continuous
 62
     1
100
AcDbLine
 10
153.8400092629663
 20
644.1997059999999
 30
0.0
 11
156.8293982445114
 21
644.1997059999999
 31
0.0
  0
LINE
  5
159
330
43
100
AcDbEntity
  8
0
  6
Continuous
 62
     4
100
AcDbLine
 10
153.8400092629663
 20
614.200194
 30
0.0
 11
153.8400092629663
 21
644.1997059999999
 31
0.0
  0
LINE
  5
15A
330
43
100
AcDbEntity
  8
0
  6
Continuous
 62
     1
100
AcDbLine
 10
153.8400092629663
 20
614.200194
 30
0.0
 11
606.3287982445114
 21
614.200194
 31
0.0
  0
LINE
  5
15B
330
43
100
AcDbEntity
  8
0
  6
DASH_CENTER
 62
     3
100
AcDbLine
 10
594.3287982445114
 20
626.9995119999999
 30
0.0
 11
594.3287982445114
 21
641.0
 31
0.0
  0
LINE
  5
15C
330
43
100
AcDbEntity
  8
0
  6
DASH_CENTER
 62
     3
100
AcDbLine
 10
601.3294082445115
 20
634.0
 30
0.0
 11
588.3287982445114
 21
634.0
 31
0.0
  0
LINE
  5
15D
330
43
100
AcDbEntity
  8
0
  6
Continuous
 62
     4
100
AcDbLine
 10
535.3273322445112
 20
663.9995119999999
 30
0.0
 11
535.3273322445112
 21
656.9995119999996
 31
0.0
  0
LINE
  5
15E
330
43
100
AcDbEntity
  8
0
  6
Continuous
 62
     4
100
AcDbLine
 10
513.3275762445113
 20
655.2636719999998
 30
0.0
 11
513.3275762445113
 21
656.9995119999996
 31
0.0
  0
LINE
  5
15F
330
43
100
AcDbEntity
  8
0
  6
Continuous
 62
     4
100
AcDbLine
 10
535.3273322445112
 20
653.5
 30
0.0
 11
535.3273322445112
 21
647.5
 31
0.0
  0
LINE
  5
160
330
43
100
AcDbEntity
  8
0
  6
DASH_CENTER
 62
     3
100
AcDbLine
 10
165.8293982445114
 20
626.9995119999999
 30
0.0
 11
165.8293982445114
 21
641.0
 31
0.0
  0
LINE
  5
161
330
43
100
AcDbEntity
  8
0
  6
DASH_CENTER
 62
     3
100
AcDbLine
 10
172.8292762445113
 20
634.0
 30
0.0
 11
157.3162142445111
 21
634.0
 31
0.0
  0
LINE
  5
162
330
43
100
AcDbEntity
  8
0
  6
Continuous
 62
     4
100
AcDbLine
 10
180.3289812529309
 20
647.5
 30
0.0
 11
180.3289812529309
 21
653.5
 31
0.0
  0
LINE
  5
163
330
43
100
AcDbEntity
  8
0
  6
Continuous
 62
     4
100
AcDbLine
 10
199.329225252931
 20
647.5
 30
0.0
 11
199.329225252931
 21
644.1997059999999
 31
0.0
  0
LINE
  5
164
330
43
100
AcDbEntity
  8
0
  6
Continuous
 62
     4
100
AcDbLine
 10
183.329225252931
 20
647.5
 30
0.0
 11
183.329225252931
 21
644.1997059999999
 31
0.0
  0
LINE
  5
165
330
43
100
AcDbEntity
  8
0
  6
DASH_CENTER
 62
     3
100
AcDbLine
 10
137.4286151716957
 20
528.842238
 30
0.0
 11
137.4412292629663
 21
747.8281063214699
 31
0.0
  0
LINE
  5
166
330
43
100
AcDbEntity
  8
0
  6
Continuous
 62
     4
100
AcDbLine
 10
180.3289812529309
 20
653.5
 30
0.0
 11
535.3273322445112
 21
653.5
 31
0.0
  0
LINE
  5
167
330
43
100
AcDbEntity
  8
0
  6
Continuous
 62
     4
100
AcDbLine
 10
195.5793472529309
 20
654.4995119999999
 30
0.0
 11
196.5789812529309
 21
653.5
 31
0.0
  0
LINE
  5
168
330
43
100
AcDbEntity
  8
0
  6
Continuous
 62
     4
100
AcDbLine
 10
187.079103252931
 20
654.4995119999999
 30
0.0
 11
186.079591252931
 21
653.5
 31
0.0
  0
LINE
  5
169
330
43
100
AcDbEntity
  8
0
  6
Continuous
 62
     4
100
AcDbLine
 10
195.5793472529309
 20
654.4995119999999
 30
0.0
 11
187.079103252931
 21
654.4995119999999
 31
0.0
  0
LINE
  5
16A
330
43
100
AcDbEntity
  8
0
  6
DASH_CENTER
 62
     3
100
AcDbLine
 10
191.329225252931
 20
657.4995119999999
 30
0.0
 11
191.329225252931
 21
637.4995119999999
 31
0.0
  0
LINE
  5
16B
330
43
100
AcDbEntity
  8
0
  6
Continuous
 62
     4
100
AcDbLine
 10
535.3273322445112
 20
647.5
 30
0.0
 11
180.3289812529309
 21
647.5
 31
0.0
  0
LINE
  5
16C
330
43
100
AcDbEntity
  8
0
  6
Continuous
 62
     1
100
AcDbLine
 10
603.3287982445114
 20
644.1997059999999
 30
0.0
 11
156.8293982445114
 21
644.1997059999999
 31
0.0
  0
LINE
  5
16D
330
43
100
AcDbEntity
  8
0
  6
Continuous
 62
     4
100
AcDbLine
 10
603.3287982445114
 20
614.200194
 30
0.0
 11
603.3287982445114
 21
644.1997059999999
 31
0.0
  0
LINE
  5
16E
330
43
100
AcDbEntity
  8
0
  6
Continuous
 62
     1
100
AcDbLine
 10
156.8293982445114
 20
614.200194
 30
0.0
 11
603.3287982445114
 21
614.200194
 31
0.0
  0
LINE
  5
16F
330
43
100
AcDbEntity
  8
0
  6
Continuous
 62
     4
100
AcDbLine
 10
156.8293982445114
 20
644.1997059999999
 30
0.0
 11
156.8293982445114
 21
614.200194
 31
0.0
  0
LINE
  5
170
330
43
100
AcDbEntity
  8
0
  6
Continuous
 62
     4
100
AcDbLine
 10
535.3273322445112
 20
655.2636719999998
 30
0.0
 11
513.3275762445113
 21
655.2636719999998
 31
0.0
  0
LINE
  5
171
330
43
100
AcDbEntity
  8
0
  6
Continuous
 62
     4
100
AcDbLine
 10
513.3275762445113
 20
655.2636719999998
 30
0.0
 11
514.3458882445112
 21
653.5
 31
0.0
  0
LINE
  5
172
330
43
100
AcDbEntity
  8
0
  6
Continuous
 62
     4
100
AcDbLine
 10
534.3089002445114
 20
653.5
 30
0.0
 11
535.3273322445112
 21
655.2636719999998
 31
0.0
  0
LINE
  5
173
330
43
100
AcDbEntity
  8
0
  6
DASH_CENTER
 62
     3
100
AcDbLine
 10
524.3278202445114
 20
644.4995119999999
 30
0.0
 11
524.3278202445114
 21
731.3754879999999
 31
0.0
  0
LINE
  5
174
330
43
100
AcDbEntity
  8
0
  6
DASH_CENTER
 62
     3
100
AcDbLine
 10
588.3287982445114
 20
634.0
 30
0.0
 11
587.3290422445112
 21
634.0
 31
0.0
  0
LINE
  5
175
330
43
100
AcDbEntity
  8
1
  6
Continuous
 62
     3
100
AcDbLine
 10
471.8892356421776
 20
718.5291935494199
 30
0.0
 11
499.8892356421776
 21
704.3291935494199
 31
0.0
  0
LINE
  5
176
330
43
100
AcDbEntity
  8
1
  6
Continuous
 62
     3
100
AcDbLine
 10
160.5754867570015
 20
667.8276308375378
 30
0.0
 11
178.4754867570015
 21
638.4276308375379
 31
0.0
  0
LINE
  5
177
330
43
100
AcDbEntity
  8
1
  6
DASH_CENTER
 62
     3
100
AcDbLine
 10
496.5278202445116
 20
671.999512
 30
0.0
 11
512.1278202445111
 21
671.999512
 31
0.0
  0
LINE
  5
178
330
43
100
AcDbEntity
  8
1
  6
DASH_CENTER
 62
     3
100
AcDbLine
 10
504.3278202445114
 20
664.1995120000008
 30
0.0
 11
504.3278202445114
 21
679.7995119999999
 31
0.0
  0
LINE
  5
179
330
43
100
AcDbEntity
  8
1
  6
DASH_CENTER
 62
     3
100
AcDbLine
 10
496.5278202445112
 20
715.9995120000003
 30
0.0
 11
512.1278202445116
 21
715.9995120000003
 31
0.0
  0
LINE
  5
17A
330
43
100
AcDbEntity
  8
1
  6
DASH_CENTER
 62
     3
100
AcDbLine
 10
504.3278202445114
 20
708.1995120000004
 30
0.0
 11
504.3278202445114
 21
723.7995120000005
 31
0.0
  0
LINE
  5
17B
330
43
100
AcDbEntity
  8
1
  6
DASH_CENTER
 62
     3
100
AcDbLine
 10
537.1979516286405
 20
693.999512
 30
0.0
 11
551.490333664066
 21
693.999512
 31
0.0
  0
LINE
  5
17C
330
43
100
AcDbEntity
  8
1
  6
DASH_CENTER
 62
     3
100
AcDbLine
 10
544.3278202445114
 20
686.1995119999999
 30
0.0
 11
544.3278202445114
 21
701.7995120000005
 31
0.0
  0
LINE
  5
17D
330
43
100
AcDbEntity
  8
1
  6
DASH_CENTER
 62
     3
100
AcDbLine
 10
496.5278202445116
 20
693.999512
 30
0.0
 11
512.1278202445111
 21
693.999512
 31
0.0
  0
LINE
  5
17E
330
43
100
AcDbEntity
  8
1
  6
DASH_CENTER
 62
     3
100
AcDbLine
 10
504.3278202445114
 20
686.1995120000009
 30
0.0
 11
504.3278202445114
 21
701.799512
 31
0.0
  0
LINE
  5
17F
330
43
100
AcDbEntity
  8
1
  6
DASH_CENTER
 62
     3
100
AcDbLine
 10
536.5278202445112
 20
715.9995120000003
 30
0.0
 11
552.1278202445116
 21
715.9995120000003
 31
0.0
  0
LINE
  5
180
330
43
100
AcDbEntity
  8
1
  6
DASH_CENTER
 62
     3
100
AcDbLine
 10
544.3278202445114
 20
708.1995120000004
 30
0.0
 11
544.3278202445114
 21
723.7995120000005
 31
0.0
  0
LINE
  5
181
330
43
100
AcDbEntity
  8
1
  6
DASH_CENTER
 62
     3
100
AcDbLine
 10
536.5278202445114
 20
671.999512
 30
0.0
 11
552.1278202445116
 21
671.999512
 31
0.0
  0
LINE
  5
182
330
43
100
AcDbEntity
  8
1
  6
DASH_CENTER
 62
     3
100
AcDbLine
 10
544.3278202445114
 20
664.1995120000008
 30
0.0
 11
544.3278202445114
 21
679.7995119999999
 31
0.0
  0
ARC
  5
183
330
43
100
AcDbEntity
  8
0
  6
Continuous
 62
     1
100
AcDbCircle
 10
203.4412892629663
 20
816.6403266314879
 30
0.0
 40
11.0
100
AcDbArc
 50
0.0
 51
180.0
  0
ARC
  5
184
330
43
100
AcDbEntity
  8
0
  6
Continuous
 62
     3
100
AcDbCircle
 10
382.9230412629664
 20
935.4596606314878
 30
0.0
 40
1.819824000000239
100
AcDbArc
 50
40.6963470000127
 51
90.00000000000358
  0
ARC
  5
185
330
43
100
AcDbEntity
  8
0
  6
Continuous
 62
     3
100
AcDbCircle
 10
382.9230412629659
 20
935.0997986314878
 30
0.0
 40
1.819999999999936
100
AcDbArc
 50
-89.99999999998748
 51
-40.70800099997987
  0
ARC
  5
186
330
43
100
AcDbEntity
  8
0
  6
Continuous
 62
     3
100
AcDbCircle
 10
379.4827332629658
 20
935.0997986314878
 30
0.0
 40
1.820312000000037
100
AcDbArc
 50
-139.2945049999846
 51
-89.99999999998748
  0
ARC
  5
187
330
43
100
AcDbEntity
  8
0
  6
Continuous
 62
     3
100
AcDbCircle
 10
379.4827332629669
 20
935.4596606314878
 30
0.0
 40
1.819774000000052
100
AcDbArc
 50
90.00000000002326
 51
139.3061590000353
  0
ARC
  5
188
330
43
100
AcDbEntity
  8
0
  6
Continuous
 62
     3
100
AcDbCircle
 10
410.7619092629669
 20
937.2194266314877
 30
0.0
 40
1.819823999999873
100
AcDbArc
 50
40.67881000003153
 51
90.00000000002326
  0
ARC
  5
189
330
43
100
AcDbEntity
  8
0
  6
Continuous
 62
     3
100
AcDbCircle
 10
410.7619092629661
 20
933.4596606314878
 30
0.0
 40
1.820330000000013
100
AcDbArc
 50
-89.99999999999822
 51
-40.67880999999441
  0
ARC
  5
18A
330
43
100
AcDbEntity
  8
0
  6
Continuous
 62
     3
100
AcDbCircle
 10
376.1226272629667
 20
933.4596606314878
 30
0.0
 40
1.820311999999879
100
AcDbArc
 50
-139.3211900000246
 51
-90.00000000002326
  0
ARC
  5
18B
330
43
100
AcDbEntity
  8
0
  6
Continuous
 62
     3
100
AcDbCircle
 10
376.1226272629656
 20
937.2194266314877
 30
0.0
 40
1.820182000000159
100
AcDbArc
 50
89.99999999997674
 51
137.571224999963
  0
ARC
  5
18C
330
43
100
AcDbEntity
  8
0
  6
Continuous
 62
     3
100
AcDbCircle
 10
410.7619092629662
 20
938.4796806314878
 30
0.0
 40
0.2998039999999946
100
AcDbArc
 50
0.0
 51
90.0
  0
ARC
  5
18D
330
43
100
AcDbEntity
  8
0
  6
Continuous
 62
     3
100
AcDbCircle
 10
410.7619092629661
 20
932.1994066314878
 30
0.0
 40
0.3006600000001072
100
AcDbArc
 50
-89.99999999998917
 51
0.0
  0
ARC
  5
18E
330
43
100
AcDbEntity
  8
0
  6
Continuous
 62
     3
100
AcDbCircle
 10
376.122627262966
 20
932.1994066314878
 30
0.0
 40
0.2998039999996536
100
AcDbArc
 50
180.0
 51
-89.99999999993483
  0
ARC
  5
18F
330
43
100
AcDbEntity
  8
0
  6
Continuous
 62
     3
100
AcDbCircle
 10
376.1226272629664
 20
938.4796806314878
 30
0.0
 40
0.299925999999914
100
AcDbArc
 50
90.00000000001087
 51
180.0
  0
ARC
  5
190
330
43
100
AcDbEntity
  8
0
  6
Continuous
 62
     3
100
AcDbCircle
 10
507.0081802445117
 20
678.8398439999997
 30
0.0
 40
0.299925999999914
100
AcDbArc
 50
90.00000000006516
 51
180.0
  0
ARC
  5
191
330
43
100
AcDbEntity
  8
0
  6
Continuous
 62
     3
100
AcDbCircle
 10
507.0081802445112
 20
672.5595699999998
 30
0.0
 40
0.2998039999998241
100
AcDbArc
 50
180.0
 51
-89.99999999996741
  0
ARC
  5
192
330
43
100
AcDbEntity
  8
0
  6
Continuous
 62
     3
100
AcDbCircle
 10
541.6474622445113
 20
672.5595699999998
 30
0.0
 40
0.3006600000001072
100
AcDbArc
 50
-90.0
 51
0.0
  0
ARC
  5
193
330
43
100
AcDbEntity
  8
0
  6
Continuous
 62
     3
100
AcDbCircle
 10
541.6474622445113
 20
678.8398439999997
 30
0.0
 40
0.2998039999999946
100
AcDbArc
 50
0.0
 51
90.0
  0
ARC
  5
194
330
43
100
AcDbEntity
  8
0
  6
Continuous
 62
     3
100
AcDbCircle
 10
507.0081802445108
 20
677.5795899999997
 30
0.0
 40
1.820182000000159
100
AcDbArc
 50
89.99999999998211
 51
137.5712249999678
  0
ARC
  5
195
330
43
100
AcDbEntity
  8
0
  6
Continuous
 62
     3
100
AcDbCircle
 10
507.0081802445119
 20
673.8198239999998
 30
0.0
 40
1.820311999999879
100
AcDbArc
 50
-139.3211900000246
 51
-90.00000000002147
  0
ARC
  5
196
330
43
100
AcDbEntity
  8
0
  6
Continuous
 62
     3
100
AcDbCircle
 10
541.6474622445113
 20
673.8198239999998
 30
0.0
 40
1.820330000000013
100
AcDbArc
 50
-90.0
 51
-40.67880999999325
  0
ARC
  5
197
330
43
100
AcDbEntity
  8
0
  6
Continuous
 62
     3
100
AcDbCircle
 10
541.6474622445122
 20
677.5795899999997
 30
0.0
 40
1.819823999999744
100
AcDbArc
 50
40.67881000003502
 51
90.00000000002863
  0
ARC
  5
198
330
43
100
AcDbEntity
  8
0
  6
Continuous
 62
     3
100
AcDbCircle
 10
510.3682862445122
 20
675.8198239999998
 30
0.0
 40
1.819774000000052
100
AcDbArc
 50
90.00000000002863
 51
139.3061590000376
  0
ARC
  5
199
330
43
100
AcDbEntity
  8
0
  6
Continuous
 62
     3
100
AcDbCircle
 10
510.3682862445108
 20
675.4599619999998
 30
0.0
 40
1.820311999999908
100
AcDbArc
 50
-139.2945049999812
 51
-89.9999999999839
  0
ARC
  5
19A
330
43
100
AcDbEntity
  8
0
  6
Continuous
 62
     3
100
AcDbCircle
 10
513.808594244511
 20
675.4599619999998
 30
0.0
 40
1.819999999999936
100
AcDbArc
 50
-89.99999999998569
 51
-40.70800099997871
  0
ARC
  5
19B
330
43
100
AcDbEntity
  8
0
  6
Continuous
 62
     3
100
AcDbCircle
 10
513.8085942445115
 20
675.8198239999998
 30
0.0
 40
1.819824000000282
100
AcDbArc
 50
40.69634700001154
 51
90.0
  0
ARC
  5
19C
330
43
100
AcDbEntity
  8
0
  6
Continuous
 62
     1
100
AcDbCircle
 10
714.3287982445112
 20
557.0004899999999
 30
0.0
 40
11.0
100
AcDbArc
 50
0.0
 51
180.0
  0
CIRCLE
  5
19D
330
43
100
AcDbEntity
  8
1
  6
Continuous
 62
     3
100
AcDbCircle
 10
739.2946007504761
 20
898.0674674690259
 30
0.0
 40
0.6000000000000227
  0
CIRCLE
  5
19E
330
43
100
AcDbEntity
  8
1
  6
Continuous
 62
     3
100
AcDbCircle
 10
417.8808518653
 20
963.9690301809079
 30
0.0
 40
0.6000000000001364
  0
CIRCLE
  5
19F
330
43
100
AcDbEntity
  8
1
  6
Continuous
 62
     4
100
AcDbCircle
 10
751.9406892629662
 20
893.6395426314879
 30
0.0
 40
6.0
  0
CIRCLE
  5
1A0
330
43
100
AcDbEntity
  8
1
  6
Continuous
 62
     4
100
AcDbCircle
 10
323.4412892629663
 20
893.639836631488
 30
0.0
 40
6.0
  0
CIRCLE
  5
1A1
330
43
100
AcDbEntity
  8
0
  6
DASHED
 62
     3
100
AcDbCircle
 10
413.4422672629661
 20
975.6393486314879
 30
0.0
 40
5.0
  0
CIRCLE
  5
1A2
330
43
100
AcDbEntity
  8
0
  6
DASHED
 62
     3
100
AcDbCircle
 10
373.4422672629661
 20
975.6393486314879
 30
0.0
 40
5.0
  0
CIRCLE
  5
1A3
330
43
100
AcDbEntity
  8
0
  6
DASHED
 62
     3
100
AcDbCircle
 10
373.4422672629661
 20
931.639348631488
 30
0.0
 40
4.999999999999943
  0
CIRCLE
  5
1A4
330
43
100
AcDbEntity
  8
0
  6
DASHED
 62
     3
100
AcDbCircle
 10
413.4422672629661
 20
931.639348631488
 30
0.0
 40
5.0
  0
CIRCLE
  5
1A5
330
43
100
AcDbEntity
  8
0
  6
LONG_DASHED
 62
     3
100
AcDbCircle
 10
373.4422672629661
 20
931.639348631488
 30
0.0
 40
5.200000000000159
  0
CIRCLE
  5
1A6
330
43
100
AcDbEntity
  8
0
  6
LONG_DASHED
 62
     3
100
AcDbCircle
 10
373.4422672629661
 20
975.6393486314879
 30
0.0
 40
5.199999999999591
  0
CIRCLE
  5
1A7
330
43
100
AcDbEntity
  8
0
  6
LONG_DASHED
 62
     3
100
AcDbCircle
 10
413.4422672629661
 20
953.639348631488
 30
0.0
 40
5.199999999999022
  0
CIRCLE
  5
1A8
330
43
100
AcDbEntity
  8
0
  6
LONG_DASHED
 62
     3
100
AcDbCircle
 10
373.4422672629661
 20
953.639348631488
 30
0.0
 40
5.200000000000045
  0
CIRCLE
  5
1A9
330
43
100
AcDbEntity
  8
0
  6
LONG_DASHED
 62
     3
100
AcDbCircle
 10
373.4422672629661
 20
953.639348631488
 30
0.0
 40
2.900000000000432
  0
CIRCLE
  5
1AA
330
43
100
AcDbEntity
  8
0
  6
LONG_DASHED
 62
     3
100
AcDbCircle
 10
413.4422672629661
 20
953.639348631488
 30
0.0
 40
2.900000000000432
  0
CIRCLE
  5
1AB
330
43
100
AcDbEntity
  8
0
  6
LONG_DASHED
 62
     3
100
AcDbCircle
 10
413.4422672629661
 20
975.6393486314879
 30
0.0
 40
5.199999999999591
  0
CIRCLE
  5
1AC
330
43
100
AcDbEntity
  8
0
  6
LONG_DASHED
 62
     3
100
AcDbCircle
 10
413.4422672629661
 20
931.639348631488
 30
0.0
 40
5.199999999999022
  0
CIRCLE
  5
1AD
330
43
100
AcDbEntity
  8
0
  6
LONG_DASHED
 62
     3
100
AcDbCircle
 10
504.3278202445114
 20
671.999512
 30
0.0
 40
5.199999999999022
  0
CIRCLE
  5
1AE
330
43
100
AcDbEntity
  8
0
  6
LONG_DASHED
 62
     3
100
AcDbCircle
 10
504.3278202445114
 20
715.9995119999999
 30
0.0
 40
5.199999999999591
  0
CIRCLE
  5
1AF
330
43
100
AcDbEntity
  8
0
  6
LONG_DASHED
 62
     3
100
AcDbCircle
 10
504.3278202445114
 20
693.999512
 30
0.0
 40
2.900000000000432
  0
CIRCLE
  5
1B0
330
43
100
AcDbEntity
  8
0
  6
LONG_DASHED
 62
     3
100
AcDbCircle
 10
544.3278202445114
 20
693.999512
 30
0.0
 40
2.900000000000432
  0
CIRCLE
  5
1B1
330
43
100
AcDbEntity
  8
0
  6
LONG_DASHED
 62
     3
100
AcDbCircle
 10
544.3278202445114
 20
693.999512
 30
0.0
 40
5.200000000000045
  0
CIRCLE
  5
1B2
330
43
100
AcDbEntity
  8
0
  6
LONG_DASHED
 62
     3
100
AcDbCircle
 10
504.3278202445114
 20
693.999512
 30
0.0
 40
5.199999999999022
  0
CIRCLE
  5
1B3
330
43
100
AcDbEntity
  8
0
  6
LONG_DASHED
 62
     3
100
AcDbCircle
 10
544.3278202445114
 20
715.9995119999999
 30
0.0
 40
5.199999999999591
  0
CIRCLE
  5
1B4
330
43
100
AcDbEntity
  8
0
  6
LONG_DASHED
 62
     3
100
AcDbCircle
 10
544.3278202445114
 20
671.999512
 30
0.0
 40
5.200000000000159
  0
CIRCLE
  5
1B5
330
43
100
AcDbEntity
  8
0
  6
DASHED
 62
     3
100
AcDbCircle
 10
504.3278202445114
 20
671.999512
 30
0.0
 40
5.0
  0
CIRCLE
  5
1B6
330
43
100
AcDbEntity
  8
0
  6
DASHED
 62
     3
100
AcDbCircle
 10
544.3278202445114
 20
671.999512
 30
0.0
 40
4.999999999999773
  0
CIRCLE
  5
1B7
330
43
100
AcDbEntity
  8
0
  6
DASHED
 62
     3
100
AcDbCircle
 10
544.3278202445114
 20
715.9995119999999
 30
0.0
 40
5.0
  0
CIRCLE
  5
1B8
330
43
100
AcDbEntity
  8
0
  6
DASHED
 62
     3
100
AcDbCircle
 10
504.3278202445114
 20
715.9995119999999
 30
0.0
 40
5.0
  0
CIRCLE
  5
1B9
330
43
100
AcDbEntity
  8
1
  6
Continuous
 62
     4
100
AcDbCircle
 10
594.3287982445114
 20
634.0
 30
0.0
 40
6.0
  0
CIRCLE
  5
1BA
330
43
100
AcDbEntity
  8
1
  6
Continuous
 62
     4
100
AcDbCircle
 10
165.8293982445114
 20
633.9997059999998
 30
0.0
 40
6.0
  0
CIRCLE
  5
1BB
330
43
100
AcDbEntity
  8
1
  6
Continuous
 62
     3
100
AcDbCircle
 10
499.8892356421776
 20
704.3291935494199
 30
0.0
 40
0.6000000000000796
  0
CIRCLE
  5
1BC
330
43
100
AcDbEntity
  8
1
  6
Continuous
 62
     3
100
AcDbCircle
 10
178.4754867570015
 20
638.4276308375379
 30
0.0
 40
0.5999999999999943
  0
MTEXT
  5
1BE
330
43
100
AcDbEntity
  8
0
 62
     4
100
AcDbMText
 10
238.6572248897348
 20
774.202161138562
 30
0.0
 40
6.0
 41
0.0
 71
     7
 72
     1
  1
Anschlagma\U+00dfe f\U+00fcr T\U+00fcr mit Linksfl\U+00fcgel
  7
CONVERTER_11
 73
     1
 44
0.60024009603842
  0
MTEXT
  5
1C0
330
43
100
AcDbEntity
  8
1
 62
     4
100
AcDbMText
 10
760.1744801400524
 20
934.226379059034
 30
0.0
 40
10.0
 41
0.0
 71
     1
 72
     1
  1
2
  7
CONVERTER_12
 73
     1
 44
1.02040816326531
  0
MTEXT
  5
1C1
330
43
100
AcDbEntity
  8
1
 62
     4
100
AcDbMText
 10
448.7113658039522
 20
984.7545294410319
 30
0.0
 40
10.0
 41
0.0
 71
     1
 72
     1
  1
1
  7
CONVERTER_12
 73
     1
 44
1.02040816326531
  0
MTEXT
  5
1C2
330
43
100
AcDbEntity
  8
0
 62
     4
100
AcDbMText
 10
239.1719536376756
 20
514.1021611385621
 30
0.0
 40
6.0
 41
0.0
 71
     7
 72
     1
  1
Anschlagma\U+00dfe f\U+00fcr T\U+00fcr mit Rechtsfl\U+00fcgel
  7
CONVERTER_11
 73
     1
 44
0.60024009603842
  0
TEXT
  5
1C4
330
43
100
AcDbEntity
  8
1
 62
     3
100
AcDbText
 10
238.75282406275
 20
764.57594755438
 30
0.0
 40
5.0
  1
Fixing dimensions DIN left
 41
0.9
  7
CONVERTER_13
100
AcDbText
  0
TEXT
  5
1C5
330
43
100
AcDbEntity
  8
1
 62
     3
100
AcDbText
 10
238.75282406275
 20
503.956641740901
 30
0.0
 40
5.0
  1
Fixing dimensions DIN right
 41
0.9
  7
CONVERTER_13
100
AcDbText
  0
MTEXT
  5
1C6
330
43
100
AcDbEntity
  8
1
 62
     4
100
AcDbMText
 10
469.0587217035253
 20
725.1146928095438
 30
0.0
 40
10.0
 41
0.0
 71
     3
 72
     1
  1
1
  7
CONVERTER_12
 73
     1
 44
1.02040816326531
  0
MTEXT
  5
1C7
330
43
100
AcDbEntity
  8
1
 62
     4
100
AcDbMText
 10
157.5956073674252
 20
674.586542427546
 30
0.0
 40
10.0
 41
0.0
 71
     3
 72
     1
  1
2
  7
CONVERTER_12
 73
     1
 44
1.02040816326531
  0
DIMENSION
  5
1D3
330
43
100
AcDbEntity
  8
1
100
AcDbDimension
  2
*D8
 10
606.3287982445114
 20
573.822987518695
 30
0.0
 11
394.542692658745
 21
581.322987518695
 31
0.0
 70
    32
  1
<>
 71
     5
 42
-1.0
 53
0.00013888888889
  3
ME10_DIM_10
100
AcDbAlignedDimension
 13
153.8400092629663
 23
614.200194
 33
0.0
 14
606.3287982445114
 24
614.200194
 34
0.0
100
AcDbRotatedDimension
  0
DIMENSION
  5
1DF
330
43
100
AcDbEntity
  8
1
100
AcDbDimension
  2
*D9
 10
714.3287982445112
 20
573.822987518695
 30
0.0
 11
655.065388162994
 21
581.322987518695
 31
0.0
 70
    32
  1
<>
 71
     5
 42
-1.0
 53
0.00013888888889
  3
ME10_DIM_11
100
AcDbAlignedDimension
 13
606.3287982445114
 23
614.200194
 33
0.0
 14
714.3287982445112
 24
577.0004899999999
 34
0.0
100
AcDbRotatedDimension
  0
DIMENSION
  5
1EB
330
43
100
AcDbEntity
  8
1
100
AcDbDimension
  2
*D10
 10
554.3278202445114
 20
765.689417113709
 30
0.0
 11
522.948465656565
 21
773.189417113709
 31
0.0
 70
    32
  1
<>
 71
     5
 42
-1.0
 53
0.00013888888889
  3
ME10_DIM_12
100
AcDbAlignedDimension
 13
494.3278202445114
 23
723.3972767293039
 33
0.0
 14
554.3278202445114
 24
723.3972767293039
 34
0.0
100
AcDbRotatedDimension
  0
DIMENSION
  5
1F7
330
43
100
AcDbEntity
  8
1
100
AcDbDimension
  2
*D11
 10
714.3287982445112
 20
765.318302162848
 30
0.0
 11
627.973996750158
 21
772.818302162848
 31
0.0
 70
    32
  1
<>
 71
     5
 42
-1.0
 53
0.00013888888889
  3
ME10_DIM_13
100
AcDbAlignedDimension
 13
554.3278202445114
 23
723.3972767293039
 33
0.0
 14
714.3287982445112
 24
577.0004899999999
 34
0.0
100
AcDbRotatedDimension
  0
DIMENSION
  5
203
330
43
100
AcDbEntity
  8
1
100
AcDbDimension
  2
*D12
 10
311.4412892629663
 20
833.661763518136
 30
0.0
 11
505.253817140254
 21
841.161763518136
 31
0.0
 70
    32
  1
<>
 71
     5
 42
-1.0
 53
0.00013888888889
  3
ME10_DIM_14
100
AcDbAlignedDimension
 13
763.9300782445113
 23
873.840030631488
 33
0.0
 14
311.4412892629663
 24
873.840030631488
 34
0.0
100
AcDbRotatedDimension
  0
DIMENSION
  5
20F
330
43
100
AcDbEntity
  8
1
100
AcDbDimension
  2
*D13
 10
203.4412892629663
 20
833.661763518136
 30
0.0
 11
255.144155469489
 21
841.161763518136
 31
0.0
 70
    32
  1
<>
 71
     5
 42
-1.0
 53
0.00013888888889
  3
ME10_DIM_15
100
AcDbAlignedDimension
 13
311.4412892629663
 23
873.840030631488
 33
0.0
 14
203.4412892629663
 24
836.6403266314879
 34
0.0
100
AcDbRotatedDimension
  0
DIMENSION
  5
21B
330
43
100
AcDbEntity
  8
1
100
AcDbDimension
  2
*D14
 10
363.4422672629661
 20
1027.89623025554
 30
0.0
 11
391.490965833276
 21
1035.39623025554
 31
0.0
 70
    32
  1
<>
 71
     5
 42
-1.0
 53
0.00013888888889
  3
ME10_DIM_16
100
AcDbAlignedDimension
 13
423.4422672629663
 23
983.6393486314893
 33
0.0
 14
363.4422672629661
 24
983.6393486314893
 34
0.0
100
AcDbRotatedDimension
  0
DIMENSION
  5
227
330
43
100
AcDbEntity
  8
1
100
AcDbDimension
  2
*D15
 10
203.4412892629663
 20
1027.89623025554
 30
0.0
 11
278.636929035727
 21
1035.39623025554
 31
0.0
 70
    32
  1
<>
 71
     5
 42
-1.0
 53
0.00013888888889
  3
ME10_DIM_17
100
AcDbAlignedDimension
 13
363.4422672629661
 23
924.2415839021829
 33
0.0
 14
203.4412892629663
 24
836.6403266314879
 34
0.0
100
AcDbRotatedDimension
  0
DIMENSION
  5
232
330
43
100
AcDbEntity
  8
1
100
AcDbDimension
  2
*D16
 10
373.4422672629661
 20
1008.35249372506
 30
0.0
 11
393.718966944224
 21
1015.85249372506
 31
0.0
 70
    32
  1
<>
 71
     5
 42
-1.0
 53
0.00013888888889
  3
ME10_DIM_18
100
AcDbAlignedDimension
 13
413.4422672629661
 23
984.6393486314879
 33
0.0
 14
373.4422672629661
 24
984.6393486314879
 34
0.0
100
AcDbRotatedDimension
  0
DIMENSION
  5
23D
330
43
100
AcDbEntity
  8
1
100
AcDbDimension
  2
*D17
 10
373.4422672629661
 20
1008.34547813632
 30
0.0
 11
281.746429520488
 21
1015.84547813632
 31
0.0
 70
    32
  1
<>
 71
     5
 42
-1.0
 53
0.00013888888889
  3
ME10_DIM_19
100
AcDbAlignedDimension
 13
203.4412892629663
 23
836.6403266314879
 33
0.0
 14
373.4422672629661
 24
984.6393486314879
 34
0.0
100
AcDbRotatedDimension
  0
DIMENSION
  5
248
330
43
100
AcDbEntity
  8
1
100
AcDbDimension
  2
*D18
 10
544.3278202445114
 20
748.7126570935719
 30
0.0
 11
524.0511205632534
 21
756.2126570935719
 31
0.0
 70
    32
  1
<>
 71
     5
 42
-1.0
 53
0.00013888888889
  3
ME10_DIM_20
100
AcDbAlignedDimension
 13
504.3278202445114
 23
724.9995119999999
 33
0.0
 14
544.3278202445114
 24
724.9995119999999
 34
0.0
100
AcDbRotatedDimension
  0
DIMENSION
  5
253
330
43
100
AcDbEntity
  8
1
100
AcDbDimension
  2
*D19
 10
544.3278202445114
 20
748.705641504832
 30
0.0
 11
636.0236579869894
 21
756.205641504832
 31
0.0
 70
    32
  1
<>
 71
     5
 42
-1.0
 53
0.00013888888889
  3
ME10_DIM_21
100
AcDbAlignedDimension
 13
714.3287982445112
 23
577.0004899999999
 33
0.0
 14
544.3278202445114
 24
724.9995119999999
 34
0.0
100
AcDbRotatedDimension
  0
DIMENSION
  5
25E
330
43
100
AcDbEntity
  8
1
100
AcDbDimension
  2
*D20
 10
203.4412892629663
 20
851.487112665725
 30
0.0
 11
249.573481391004
 21
858.987112665725
 31
0.0
 70
    32
  1
<>
 71
     5
 42
-1.0
 53
0.00013888888889
  3
ME10_DIM_22
100
AcDbAlignedDimension
 13
323.4412892629663
 23
886.6393486314879
 33
0.0
 14
203.4412892629663
 24
836.6403266314879
 34
0.0
100
AcDbRotatedDimension
  0
DIMENSION
  5
269
330
43
100
AcDbEntity
  8
1
100
AcDbDimension
  2
*D21
 10
323.4412892629663
 20
851.663931219111
 30
0.0
 11
523.2793685549441
 21
859.163931219111
 31
0.0
 70
    32
  1
<>
 71
     5
 42
-1.0
 53
0.00013888888889
  3
ME10_DIM_23
100
AcDbAlignedDimension
 13
751.9406892629662
 23
886.6393486314879
 33
0.0
 14
323.4412892629663
 24
886.6393486314879
 34
0.0
100
AcDbRotatedDimension
  0
DIMENSION
  5
274
330
43
100
AcDbEntity
  8
1
100
AcDbDimension
  2
*D22
 10
714.3287982445112
 20
591.847276034237
 30
0.0
 11
668.1966061164736
 21
599.347276034237
 31
0.0
 70
    32
  1
<>
 71
     5
 42
-1.0
 53
0.00013888888889
  3
ME10_DIM_24
100
AcDbAlignedDimension
 13
594.3287982445114
 23
626.9995119999999
 33
0.0
 14
714.3287982445112
 24
577.0004899999999
 34
0.0
100
AcDbRotatedDimension
  0
DIMENSION
  5
27F
330
43
100
AcDbEntity
  8
1
100
AcDbDimension
  2
*D23
 10
594.3287982445114
 20
592.0240945876229
 30
0.0
 11
394.4907189525335
 21
599.5240945876229
 31
0.0
 70
    32
  1
<>
 71
     5
 42
-1.0
 53
0.00013888888889
  3
ME10_DIM_25
100
AcDbAlignedDimension
 13
165.8293982445114
 23
626.9995119999999
 33
0.0
 14
594.3287982445114
 24
626.9995119999999
 34
0.0
100
AcDbRotatedDimension
  0
ENDBLK
  5
45
330
43
100
AcDbEntity
  8
0
100
AcDbBlockEnd
  0
BLOCK
  5
47
330
46
100
AcDbEntity
  8
0
100
AcDbBlockBegin
  2
a2kl
 70
     0
 71
     0
 10
-5.28911376418799
 20
124.793329709917
 30
0.0
  3
a2kl
  1

  0
LINE
  5
280
330
46
100
AcDbEntity
  8
0
  6
Continuous
 62
     1
100
AcDbLine
 10
271.7108862358121
 20
124.793329709917
 30
0.0
 11
271.710886235812
 21
167.793329709917
 31
0.0
  0
LINE
  5
281
330
46
100
AcDbEntity
  8
1
  6
DOT_CENTER
 62
     7
100
AcDbLine
 10
387.6454394442231
 20
125.1208272230269
 30
0.0
 11
387.6454394442231
 21
130.0012803374357
 31
0.0
  0
LINE
  5
282
330
46
100
AcDbEntity
  8
1
  6
DOT_CENTER
 62
     7
100
AcDbLine
 10
385.1370501340241
 20
127.543329709917
 30
0.0
 11
390.2901542604112
 21
127.543329709917
 31
0.0
  0
LINE
  5
283
330
46
100
AcDbEntity
  8
1
  6
DOT_CENTER
 62
     7
100
AcDbLine
 10
373.0313452021942
 20
127.543329709917
 30
0.0
 11
381.4289963711213
 21
127.543329709917
 31
0.0
  0
LINE
  5
284
330
46
100
AcDbEntity
  8
1
  6
Continuous
 62
     4
100
AcDbLine
 10
373.7441873079005
 20
126.543329709917
 30
0.0
 11
373.7441873079005
 21
128.543329709917
 31
0.0
  0
LINE
  5
285
330
46
100
AcDbEntity
  8
1
  6
Continuous
 62
     4
100
AcDbLine
 10
380.7441873079005
 20
125.543329709917
 30
0.0
 11
373.7441873079005
 21
126.543329709917
 31
0.0
  0
LINE
  5
286
330
46
100
AcDbEntity
  8
1
  6
Continuous
 62
     4
100
AcDbLine
 10
380.7441873079005
 20
129.543329709917
 30
0.0
 11
380.7441873079005
 21
125.543329709917
 31
0.0
  0
LINE
  5
287
330
46
100
AcDbEntity
  8
1
  6
Continuous
 62
     4
100
AcDbLine
 10
373.7441873079005
 20
128.543329709917
 30
0.0
 11
380.7441873079005
 21
129.543329709917
 31
0.0
  0
LINE
  5
288
330
46
100
AcDbEntity
  8
0
  6
Continuous
 62
     1
100
AcDbLine
 10
395.710886235812
 20
130.293329709917
 30
0.0
 11
395.710886235812
 21
150.793329709917
 31
0.0
  0
LINE
  5
289
330
46
100
AcDbEntity
  8
0
  6
Continuous
 62
     1
100
AcDbLine
 10
368.710886235812
 20
130.293329709917
 30
0.0
 11
368.710886235812
 21
124.793329709917
 31
0.0
  0
LINE
  5
28A
330
46
100
AcDbEntity
  8
1
  6
Continuous
 62
     1
100
AcDbLine
 10
368.710886235812
 20
130.293329709917
 30
0.0
 11
395.710886235812
 21
130.293329709917
 31
0.0
  0
LINE
  5
28B
330
46
100
AcDbEntity
  8
0
  6
Continuous
 62
     1
100
AcDbLine
 10
318.710886235812
 20
155.793329709917
 30
0.0
 11
318.710886235812
 21
130.659996375167
 31
0.0
  0
LINE
  5
28C
330
46
100
AcDbEntity
  8
0
  6
Continuous
 62
     1
100
AcDbLine
 10
359.710886235812
 20
155.793329709917
 30
0.0
 11
359.710886235812
 21
150.793329709917
 31
0.0
  0
LINE
  5
28D
330
46
100
AcDbEntity
  8
0
  6
Continuous
 62
     1
100
AcDbLine
 10
318.710886235812
 20
155.793329709917
 30
0.0
 11
359.710886235812
 21
155.793329709917
 31
0.0
  0
LINE
  5
28E
330
46
100
AcDbEntity
  8
0
  6
Continuous
 62
     2
100
AcDbLine
 10
450.710886235812
 20
124.793329709917
 30
0.0
 11
271.7108862358121
 21
124.793329709917
 31
0.0
  0
LINE
  5
28F
330
46
100
AcDbEntity
  8
0
  6
Continuous
 62
     4
100
AcDbLine
 10
271.710886235812
 20
129.093332709917
 30
0.0
 11
318.710886235812
 21
129.093332709917
 31
0.0
  0
LINE
  5
290
330
46
100
AcDbEntity
  8
0
  6
Continuous
 62
     3
100
AcDbLine
 10
318.710886235812
 20
133.393320709917
 30
0.0
 11
271.710886235812
 21
133.393320709917
 31
0.0
  0
LINE
  5
291
330
46
100
AcDbEntity
  8
0
  6
Continuous
 62
     3
100
AcDbLine
 10
271.710886235812
 20
137.693323709917
 30
0.0
 11
318.710886235812
 21
137.693323709917
 31
0.0
  0
LINE
  5
292
330
46
100
AcDbEntity
  8
0
  6
Continuous
 62
     3
100
AcDbLine
 10
318.710886235812
 20
141.993326709917
 30
0.0
 11
271.710886235812
 21
141.993326709917
 31
0.0
  0
LINE
  5
293
330
46
100
AcDbEntity
  8
0
  6
Continuous
 62
     3
100
AcDbLine
 10
271.710886235812
 20
146.293329709917
 30
0.0
 11
318.710886235812
 21
146.293329709917
 31
0.0
  0
LINE
  5
294
330
46
100
AcDbEntity
  8
0
  6
Continuous
 62
     3
100
AcDbLine
 10
318.710886235812
 20
150.593317709917
 30
0.0
 11
271.710886235812
 21
150.593317709917
 31
0.0
  0
LINE
  5
295
330
46
100
AcDbEntity
  8
0
  6
Continuous
 62
     3
100
AcDbLine
 10
271.710886235812
 20
154.893320709917
 30
0.0
 11
318.710886235812
 21
154.893320709917
 31
0.0
  0
LINE
  5
296
330
46
100
AcDbEntity
  8
0
  6
Continuous
 62
     3
100
AcDbLine
 10
318.710886235812
 20
159.193323709917
 30
0.0
 11
271.710886235812
 21
159.193323709917
 31
0.0
  0
LINE
  5
297
330
46
100
AcDbEntity
  8
0
  6
Continuous
 62
     3
100
AcDbLine
 10
271.710886235812
 20
163.493326709917
 30
0.0
 11
318.710886235812
 21
163.493326709917
 31
0.0
  0
LINE
  5
298
330
46
100
AcDbEntity
  8
0
  6
Continuous
 62
     3
100
AcDbLine
 10
284.710886235812
 20
124.793329709917
 30
0.0
 11
284.710886235812
 21
167.793329709917
 31
0.0
  0
LINE
  5
299
330
46
100
AcDbEntity
  8
0
  6
Continuous
 62
     3
100
AcDbLine
 10
296.710886235812
 20
124.793329709917
 30
0.0
 11
296.710886235812
 21
167.793329709917
 31
0.0
  0
LINE
  5
29A
330
46
100
AcDbEntity
  8
0
  6
Continuous
 62
     3
100
AcDbLine
 10
304.710886235812
 20
124.793329709917
 30
0.0
 11
304.710886235812
 21
167.793329709917
 31
0.0
  0
LINE
  5
29B
330
46
100
AcDbEntity
  8
0
  6
Continuous
 62
     3
100
AcDbLine
 10
368.710886235812
 20
142.093329709917
 30
0.0
 11
318.710886235812
 21
142.093329709917
 31
0.0
  0
LINE
  5
29C
330
46
100
AcDbEntity
  8
0
  6
Continuous
 62
     3
100
AcDbLine
 10
318.710886235812
 20
146.393329709917
 30
0.0
 11
368.710886235812
 21
146.393329709917
 31
0.0
  0
LINE
  5
29D
330
46
100
AcDbEntity
  8
0
  6
Continuous
 62
     3
100
AcDbLine
 10
336.710886235812
 20
137.793329709917
 30
0.0
 11
336.710886235812
 21
150.793329709917
 31
0.0
  0
LINE
  5
29E
330
46
100
AcDbEntity
  8
0
  6
Continuous
 62
     3
100
AcDbLine
 10
353.710886235812
 20
137.793329709917
 30
0.0
 11
353.710886235812
 21
150.7933359428434
 31
0.0
  0
LINE
  5
29F
330
46
100
AcDbEntity
  8
0
  6
Continuous
 62
     1
100
AcDbLine
 10
395.710886235812
 20
137.759996289917
 30
0.0
 11
368.710886235812
 21
137.759996289917
 31
0.0
  0
LINE
  5
2A0
330
46
100
AcDbEntity
  8
0
  6
Continuous
 62
     2
100
AcDbLine
 10
450.710886235812
 20
167.793329709917
 30
0.0
 11
450.710886235812
 21
124.793329709917
 31
0.0
  0
LINE
  5
2A1
330
46
100
AcDbEntity
  8
0
  6
Continuous
 62
     1
100
AcDbLine
 10
359.710886235812
 20
167.793329709917
 30
0.0
 11
450.710886235812
 21
167.793329709917
 31
0.0
  0
LINE
  5
2A2
330
46
100
AcDbEntity
  8
0
  6
Continuous
 62
     1
100
AcDbLine
 10
318.710886235812
 20
154.793329709917
 30
0.0
 11
318.710886235812
 21
154.8939185888785
 31
0.0
  0
LINE
  5
2A3
330
46
100
AcDbEntity
  8
0
  6
Continuous
 62
     3
100
AcDbLine
 10
318.710886235812
 20
131.293329709917
 30
0.0
 11
368.710886235812
 21
131.293329709917
 31
0.0
  0
LINE
  5
2A4
330
46
100
AcDbEntity
  8
0
  6
Continuous
 62
     1
100
AcDbLine
 10
359.710886235812
 20
167.793329709917
 30
0.0
 11
271.710886235812
 21
167.793329709917
 31
0.0
  0
LINE
  5
2A5
330
46
100
AcDbEntity
  8
0
  6
Continuous
 62
     1
100
AcDbLine
 10
359.710886235812
 20
150.793329709917
 30
0.0
 11
368.710886235812
 21
150.793329709917
 31
0.0
  0
LINE
  5
2A6
330
46
100
AcDbEntity
  8
0
  6
Continuous
 62
     1
100
AcDbLine
 10
359.710886235812
 20
167.793329709917
 30
0.0
 11
359.710886235812
 21
163.7696679713231
 31
0.0
  0
LINE
  5
2A7
330
46
100
AcDbEntity
  8
0
  6
Continuous
 62
     1
100
AcDbLine
 10
450.710886235812
 20
137.793329709917
 30
0.0
 11
395.710886235812
 21
137.793329709917
 31
0.0
  0
LINE
  5
2A8
330
46
100
AcDbEntity
  8
0
  6
Continuous
 62
     1
100
AcDbLine
 10
318.710886235812
 20
167.793329709917
 30
0.0
 11
318.710886235812
 21
155.793329709917
 31
0.0
  0
LINE
  5
2A9
330
46
100
AcDbEntity
  8
0
  6
Continuous
 62
     1
100
AcDbLine
 10
395.710886235812
 20
124.793329709917
 30
0.0
 11
395.710886235812
 21
130.293329709917
 31
0.0
  0
LINE
  5
2AA
330
46
100
AcDbEntity
  8
0
  6
Continuous
 62
     1
100
AcDbLine
 10
271.7108862358121
 20
124.793329709917
 30
0.0
 11
271.710886235812
 21
167.793329709917
 31
0.0
  0
LINE
  5
2AB
330
46
100
AcDbEntity
  8
0
  6
Continuous
 62
     1
100
AcDbLine
 10
359.710886235812
 20
163.7696679713231
 30
0.0
 11
359.710886235812
 21
155.793329709917
 31
0.0
  0
LINE
  5
2AC
330
46
100
AcDbEntity
  8
0
  6
Continuous
 62
     7
100
AcDbLine
 10
333.00608034204
 20
164.576329691037
 30
0.0
 11
333.00608034204
 21
164.8753452443437
 31
0.0
  0
LINE
  5
2AD
330
46
100
AcDbEntity
  8
0
  6
Continuous
 62
     7
100
AcDbLine
 10
334.330437127846
 20
163.3132570618034
 30
0.0
 11
334.330437127846
 21
163.7159365752775
 31
0.0
  0
LINE
  5
2AE
330
46
100
AcDbEntity
  8
0
  6
Continuous
 62
     7
100
AcDbLine
 10
334.388142643131
 20
164.626038388765
 30
0.0
 11
336.7027514653501
 21
164.626038388765
 31
0.0
  0
LINE
  5
2AF
330
46
100
AcDbEntity
  8
0
  6
Continuous
 62
     7
100
AcDbLine
 10
336.7027514653501
 20
164.626038388765
 30
0.0
 11
336.7027514653501
 21
165.0145368196026
 31
0.0
  0
LINE
  5
2B0
330
46
100
AcDbEntity
  8
0
  6
Continuous
 62
     7
100
AcDbLine
 10
336.7027514653501
 20
165.0145368196026
 30
0.0
 11
333.623528032974
 21
165.0145368196026
 31
0.0
  0
LINE
  5
2B1
330
46
100
AcDbEntity
  8
0
  6
Continuous
 62
     7
100
AcDbLine
 10
333.485844234185
 20
164.8768530208145
 30
0.0
 11
333.485844234185
 21
162.9784566351042
 31
0.0
  0
LINE
  5
2B2
330
46
100
AcDbEntity
  8
0
  6
Continuous
 62
     7
100
AcDbLine
 10
333.623528032974
 20
162.8407728363161
 30
0.0
 11
336.7027514653501
 21
162.8407728363161
 31
0.0
  0
LINE
  5
2B3
330
46
100
AcDbEntity
  8
0
  6
Continuous
 62
     7
100
AcDbLine
 10
336.7027514653501
 20
162.8407728363161
 30
0.0
 11
336.7027514653501
 21
163.2569138357865
 31
0.0
  0
LINE
  5
2B4
330
46
100
AcDbEntity
  8
0
  6
Continuous
 62
     7
100
AcDbLine
 10
336.7027514653501
 20
163.2569138357865
 30
0.0
 11
334.388142643131
 21
163.2569138357865
 31
0.0
  0
LINE
  5
2B5
330
46
100
AcDbEntity
  8
0
  6
Continuous
 62
     7
100
AcDbLine
 10
334.388142643131
 20
163.7722798012945
 30
0.0
 11
336.7027514653501
 21
163.7722798012945
 31
0.0
  0
LINE
  5
2B6
330
46
100
AcDbEntity
  8
0
  6
Continuous
 62
     7
100
AcDbLine
 10
336.7027514653501
 20
163.7722798012945
 30
0.0
 11
336.7027514653501
 21
164.1153015615447
 31
0.0
  0
LINE
  5
2B7
330
46
100
AcDbEntity
  8
0
  6
Continuous
 62
     7
100
AcDbLine
 10
336.7027514653501
 20
164.1153015615447
 30
0.0
 11
334.388142643131
 21
164.1153015615447
 31
0.0
  0
LINE
  5
2B8
330
46
100
AcDbEntity
  8
0
  6
Continuous
 62
     7
100
AcDbLine
 10
334.330437127846
 20
164.1716447875617
 30
0.0
 11
334.330437127846
 21
164.569695162748
 31
0.0
  0
LINE
  5
2B9
330
46
100
AcDbEntity
  8
0
  6
Continuous
 62
     7
100
AcDbLine
 10
326.917930248713
 20
163.3132570618034
 30
0.0
 11
326.917930248713
 21
163.7159365752775
 31
0.0
  0
LINE
  5
2BA
330
46
100
AcDbEntity
  8
0
  6
Continuous
 62
     7
100
AcDbLine
 10
322.978480661372
 20
162.8361304719189
 30
0.0
 11
324.955519493538
 21
162.8361304719189
 31
0.0
  0
LINE
  5
2BB
330
46
100
AcDbEntity
  8
0
  6
Continuous
 62
     7
100
AcDbLine
 10
322.370079629264
 20
164.545062840565
 30
0.0
 11
322.370079629264
 21
163.3056044509565
 31
0.0
  0
LINE
  5
2BC
330
46
100
AcDbEntity
  8
0
  6
Continuous
 62
     7
100
AcDbLine
 10
323.214209609096
 20
164.4368071351779
 30
0.0
 11
323.214209609096
 21
163.4534737240387
 31
0.0
  0
LINE
  5
2BD
330
46
100
AcDbEntity
  8
0
  6
Continuous
 62
     7
100
AcDbLine
 10
323.3564167372961
 20
163.3154857247346
 30
0.0
 11
324.634759888523
 21
163.3154857247346
 31
0.0
  0
LINE
  5
2BE
330
46
100
AcDbEntity
  8
0
  6
Continuous
 62
     7
100
AcDbLine
 10
323.3564167372961
 20
164.574795134482
 30
0.0
 11
324.6317443355811
 21
164.574795134482
 31
0.0
  0
LINE
  5
2BF
330
46
100
AcDbEntity
  8
0
  6
Continuous
 62
     7
100
AcDbLine
 10
337.3937627767321
 20
162.4761157742234
 30
0.0
 11
321.679081543992
 21
162.4761157742234
 31
0.0
  0
LINE
  5
2C0
330
46
100
AcDbEntity
  8
0
  6
Continuous
 62
     7
100
AcDbLine
 10
321.293355289635
 20
165.799149307163
 30
0.0
 11
337.779489031089
 21
165.799149307163
 31
0.0
  0
LINE
  5
2C1
330
46
100
AcDbEntity
  8
0
  6
Continuous
 62
     7
100
AcDbLine
 10
338.388723308089
 20
165.3283659432955
 30
0.0
 11
338.388723308089
 21
162.522301348226
 31
0.0
  0
LINE
  5
2C2
330
46
100
AcDbEntity
  8
0
  6
Continuous
 62
     7
100
AcDbLine
 10
337.779489031089
 20
162.0515179843585
 30
0.0
 11
321.293355289635
 21
162.0515179843585
 31
0.0
  0
LINE
  5
2C3
330
46
100
AcDbEntity
  8
0
  6
Continuous
 62
     7
100
AcDbLine
 10
320.684121012634
 20
162.522301348226
 30
0.0
 11
320.684121012634
 21
165.3283659432955
 31
0.0
  0
LINE
  5
2C4
330
46
100
AcDbEntity
  8
0
  6
Continuous
 62
     7
100
AcDbLine
 10
337.530282677893
 20
162.6126356753848
 30
0.0
 11
337.530282677893
 21
165.2380316161367
 31
0.0
  0
LINE
  5
2C5
330
46
100
AcDbEntity
  8
0
  6
Continuous
 62
     7
100
AcDbLine
 10
337.3937627767321
 20
165.3745515172982
 30
0.0
 11
321.679081543992
 21
165.3745515172982
 31
0.0
  0
LINE
  5
2C6
330
46
100
AcDbEntity
  8
0
  6
Continuous
 62
     7
100
AcDbLine
 10
321.54256164283
 20
165.2380316161367
 30
0.0
 11
321.54256164283
 21
162.6126356753848
 31
0.0
  0
LINE
  5
2C7
330
46
100
AcDbEntity
  8
0
  6
Continuous
 62
     7
100
AcDbLine
 10
323.9577814792081
 20
163.7222798012945
 30
0.0
 11
324.711418418568
 21
163.7222798012945
 31
0.0
  0
LINE
  5
2C8
330
46
100
AcDbEntity
  8
0
  6
Continuous
 62
     7
100
AcDbLine
 10
324.77004976151
 20
164.4373890839912
 30
0.0
 11
324.77004976151
 21
164.3573446699407
 31
0.0
  0
LINE
  5
2C9
330
46
100
AcDbEntity
  8
0
  6
Continuous
 62
     7
100
AcDbLine
 10
324.77004976151
 20
164.3573446699407
 30
0.0
 11
325.563920525646
 21
164.3573446699407
 31
0.0
  0
LINE
  5
2CA
330
46
100
AcDbEntity
  8
0
  6
Continuous
 62
     7
100
AcDbLine
 10
325.563920525646
 20
164.3573446699407
 30
0.0
 11
325.563920525646
 21
164.545062840565
 31
0.0
  0
LINE
  5
2CB
330
46
100
AcDbEntity
  8
0
  6
Continuous
 62
     7
100
AcDbLine
 10
324.955519493538
 20
165.0145368196026
 30
0.0
 11
322.978480661372
 21
165.0145368196026
 31
0.0
  0
LINE
  5
2CC
330
46
100
AcDbEntity
  8
0
  6
Continuous
 62
     7
100
AcDbLine
 10
325.563920525646
 20
163.3056044509565
 30
0.0
 11
325.563920525646
 21
164.0653015615447
 31
0.0
  0
LINE
  5
2CD
330
46
100
AcDbEntity
  8
0
  6
Continuous
 62
     7
100
AcDbLine
 10
325.563920525646
 20
164.0653015615447
 30
0.0
 11
323.9577814792081
 21
164.0653015615447
 31
0.0
  0
LINE
  5
2CE
330
46
100
AcDbEntity
  8
0
  6
Continuous
 62
     7
100
AcDbLine
 10
323.9577814792081
 20
164.0653015615447
 30
0.0
 11
323.9577814792081
 21
163.7222798012945
 31
0.0
  0
LINE
  5
2CF
330
46
100
AcDbEntity
  8
0
  6
Continuous
 62
     7
100
AcDbLine
 10
326.975635763998
 20
164.626038388765
 30
0.0
 11
329.290244586218
 21
164.626038388765
 31
0.0
  0
LINE
  5
2D0
330
46
100
AcDbEntity
  8
0
  6
Continuous
 62
     7
100
AcDbLine
 10
329.290244586218
 20
164.626038388765
 30
0.0
 11
329.290244586218
 21
165.0145368196026
 31
0.0
  0
LINE
  5
2D1
330
46
100
AcDbEntity
  8
0
  6
Continuous
 62
     7
100
AcDbLine
 10
329.290244586218
 20
165.0145368196026
 30
0.0
 11
326.211021153841
 21
165.0145368196026
 31
0.0
  0
LINE
  5
2D2
330
46
100
AcDbEntity
  8
0
  6
Continuous
 62
     7
100
AcDbLine
 10
326.073337355053
 20
164.8768530208145
 30
0.0
 11
326.073337355053
 21
162.9784566351042
 31
0.0
  0
LINE
  5
2D3
330
46
100
AcDbEntity
  8
0
  6
Continuous
 62
     7
100
AcDbLine
 10
326.211021153841
 20
162.8407728363161
 30
0.0
 11
329.290244586218
 21
162.8407728363161
 31
0.0
  0
LINE
  5
2D4
330
46
100
AcDbEntity
  8
0
  6
Continuous
 62
     7
100
AcDbLine
 10
329.290244586218
 20
162.8407728363161
 30
0.0
 11
329.290244586218
 21
163.2569138357865
 31
0.0
  0
LINE
  5
2D5
330
46
100
AcDbEntity
  8
0
  6
Continuous
 62
     7
100
AcDbLine
 10
329.290244586218
 20
163.2569138357865
 30
0.0
 11
326.975635763998
 21
163.2569138357865
 31
0.0
  0
LINE
  5
2D6
330
46
100
AcDbEntity
  8
0
  6
Continuous
 62
     7
100
AcDbLine
 10
326.975635763998
 20
163.7722798012945
 30
0.0
 11
329.290244586218
 21
163.7722798012945
 31
0.0
  0
LINE
  5
2D7
330
46
100
AcDbEntity
  8
0
  6
Continuous
 62
     7
100
AcDbLine
 10
329.290244586218
 20
163.7722798012945
 30
0.0
 11
329.290244586218
 21
164.1153015615447
 31
0.0
  0
LINE
  5
2D8
330
46
100
AcDbEntity
  8
0
  6
Continuous
 62
     7
100
AcDbLine
 10
329.290244586218
 20
164.1153015615447
 30
0.0
 11
326.975635763998
 21
164.1153015615447
 31
0.0
  0
LINE
  5
2D9
330
46
100
AcDbEntity
  8
0
  6
Continuous
 62
     7
100
AcDbLine
 10
326.917930248713
 20
164.1716447875617
 30
0.0
 11
326.917930248713
 21
164.569695162748
 31
0.0
  0
LINE
  5
2DA
330
46
100
AcDbEntity
  8
0
  6
Continuous
 62
     7
100
AcDbLine
 10
329.8118029840471
 20
164.9568445304274
 30
0.0
 11
329.8118029840471
 21
164.6837306779401
 31
0.0
  0
LINE
  5
2DB
330
46
100
AcDbEntity
  8
0
  6
Continuous
 62
     7
100
AcDbLine
 10
329.869495273223
 20
164.626038388765
 30
0.0
 11
331.750261255111
 21
164.626038388765
 31
0.0
  0
LINE
  5
2DC
330
46
100
AcDbEntity
  8
0
  6
Continuous
 62
     7
100
AcDbLine
 10
331.750261255111
 20
164.626038388765
 30
0.0
 11
329.8118029840471
 21
163.3069138357865
 31
0.0
  0
LINE
  5
2DD
330
46
100
AcDbEntity
  8
0
  6
Continuous
 62
     7
100
AcDbLine
 10
329.8118029840471
 20
163.3069138357865
 30
0.0
 11
329.8118029840471
 21
162.897684785037
 31
0.0
  0
LINE
  5
2DE
330
46
100
AcDbEntity
  8
0
  6
Continuous
 62
     7
100
AcDbLine
 10
329.869495273223
 20
162.8401379830652
 30
0.0
 11
332.9483880528641
 21
162.8401379830652
 31
0.0
  0
LINE
  5
2DF
330
46
100
AcDbEntity
  8
0
  6
Continuous
 62
     7
100
AcDbLine
 10
333.00608034204
 20
162.897684785037
 30
0.0
 11
333.00608034204
 21
163.1993670338146
 31
0.0
  0
LINE
  5
2E0
330
46
100
AcDbEntity
  8
0
  6
Continuous
 62
     7
100
AcDbLine
 10
332.9483880528641
 20
163.2569138357865
 30
0.0
 11
331.104099680683
 21
163.2569138357865
 31
0.0
  0
LINE
  5
2E1
330
46
100
AcDbEntity
  8
0
  6
Continuous
 62
     7
100
AcDbLine
 10
331.104099680683
 20
163.2569138357865
 30
0.0
 11
333.00608034204
 21
164.576329691037
 31
0.0
  0
LINE
  5
2E2
330
46
100
AcDbEntity
  8
0
  6
Continuous
 62
     7
100
AcDbLine
 10
332.870949182364
 20
165.0145368196026
 30
0.0
 11
329.869495273223
 21
165.0145368196026
 31
0.0
  0
LINE
  5
2E3
330
46
100
AcDbEntity
  8
0
  6
Continuous
 62
     7
100
AcDbLine
 10
324.770883006402
 20
163.6641619002605
 30
0.0
 11
324.770883006402
 21
163.5524288613966
 31
0.0
  0
LINE
  5
2E4
330
46
100
AcDbEntity
  8
0
  6
Continuous
 62
     1
100
AcDbLine
 10
359.710886235812
 20
150.793329709917
 30
0.0
 11
318.710886235812
 21
150.793329709917
 31
0.0
  0
LINE
  5
2E5
330
46
100
AcDbEntity
  8
0
  6
Continuous
 62
     1
100
AcDbLine
 10
368.710886235812
 20
137.793329709917
 30
0.0
 11
353.710886235812
 21
137.793329709917
 31
0.0
  0
LINE
  5
2E6
330
46
100
AcDbEntity
  8
0
  6
Continuous
 62
     1
100
AcDbLine
 10
368.710886235812
 20
150.793329709917
 30
0.0
 11
368.710886235812
 21
130.293329709917
 31
0.0
  0
LINE
  5
2E7
330
46
100
AcDbEntity
  8
0
  6
Continuous
 62
     1
100
AcDbLine
 10
368.710886235812
 20
150.793329709917
 30
0.0
 11
450.710886235812
 21
150.793329709917
 31
0.0
  0
LINE
  5
2E8
330
46
100
AcDbEntity
  8
0
  6
Continuous
 62
     1
100
AcDbLine
 10
368.710886235812
 20
144.626662999917
 30
0.0
 11
395.710886235812
 21
144.626662999917
 31
0.0
  0
LINE
  5
2E9
330
46
100
AcDbEntity
  8
0
  6
Continuous
 62
     1
100
AcDbLine
 10
336.710886235812
 20
137.793329709917
 30
0.0
 11
318.710886235812
 21
137.793329709917
 31
0.0
  0
LINE
  5
2EA
330
46
100
AcDbEntity
  8
0
  6
Continuous
 62
     1
100
AcDbLine
 10
353.710886235812
 20
137.793329709917
 30
0.0
 11
336.710886235812
 21
137.793329709917
 31
0.0
  0
LINE
  5
2EB
330
46
100
AcDbEntity
  8
0
  6
Continuous
 62
     1
100
AcDbLine
 10
318.710886235812
 20
130.659996375167
 30
0.0
 11
318.710886235812
 21
124.793329709917
 31
0.0
  0
LINE
  5
2EC
330
46
100
AcDbEntity
  8
0
  6
Continuous
 62
     3
100
AcDbLine
 10
277.210886235812
 20
124.793329709917
 30
0.0
 11
277.2108862358122
 21
167.793329709917
 31
0.0
  0
LINE
  5
2ED
330
46
100
AcDbEntity
  8
0
  6
Continuous
 62
     1
100
AcDbLine
 10
271.7108862358121
 20
124.793329709917
 30
0.0
 11
271.710886235812
 21
167.793329709917
 31
0.0
  0
LINE
  5
2EE
330
46
100
AcDbEntity
  8
0
  6
Continuous
 62
     2
100
AcDbLine
 10
450.710886235812
 20
534.793329709917
 30
0.0
 11
450.710886235812
 21
124.793329709917
 31
0.0
  0
LINE
  5
2EF
330
46
100
AcDbEntity
  8
1
  6
Continuous
 62
     2
100
AcDbLine
 10
-133.289113764188
 20
124.793329709917
 30
0.0
 11
271.7108862358121
 21
124.793329709917
 31
0.0
  0
LINE
  5
2F0
330
46
100
AcDbEntity
  8
0
  6
Continuous
 62
     2
100
AcDbLine
 10
-133.289113764188
 20
534.793329709917
 30
0.0
 11
450.710886235812
 21
534.793329709917
 31
0.0
  0
LINE
  5
2F1
330
46
100
AcDbEntity
  8
0
  6
Continuous
 62
     2
100
AcDbLine
 10
-133.289113764188
 20
124.793329709917
 30
0.0
 11
-133.289113764188
 21
416.793329709917
 31
0.0
  0
LINE
  5
2F2
330
46
100
AcDbEntity
  8
0
  6
Continuous
 62
     3
100
AcDbLine
 10
-118.289113764188
 20
146.293329709917
 30
0.0
 11
-118.289113764188
 21
416.793329709917
 31
0.0
  0
LINE
  5
2F3
330
46
100
AcDbEntity
  8
1
  6
Continuous
 62
     3
100
AcDbLine
 10
-118.289113764188
 20
416.793329709917
 30
0.0
 11
-133.289113764188
 21
416.793329709917
 31
0.0
  0
LINE
  5
2F4
330
46
100
AcDbEntity
  8
0
  6
Continuous
 62
     2
100
AcDbLine
 10
-133.289113764188
 20
416.793329709917
 30
0.0
 11
-133.289113764188
 21
534.793329709917
 31
0.0
  0
LINE
  5
2F5
330
46
100
AcDbEntity
  8
1
  6
Continuous
 62
     1
100
AcDbLine
 10
381.425558157405
 20
141.082443949214
 30
0.0
 11
386.425558157405
 21
141.082443949214
 31
0.0
  0
ARC
  5
2F6
330
46
100
AcDbEntity
  8
0
  6
Continuous
 62
     7
100
AcDbCircle
 10
332.9484607964661
 20
163.1992942902129
 30
0.0
 40
0.057619591492559
100
AcDbArc
 50
0.07233481467586
 51
90.07233481495881
  0
ARC
  5
2F7
330
46
100
AcDbEntity
  8
0
  6
Continuous
 62
     7
100
AcDbCircle
 10
332.9484607964661
 20
162.8977575286387
 30
0.0
 40
0.0576195914921899
100
AcDbArc
 50
-90.07233481495895
 51
-0.0723348146476
  0
ARC
  5
2F8
330
46
100
AcDbEntity
  8
0
  6
Continuous
 62
     7
100
AcDbCircle
 10
329.869422529621
 20
162.8977575286387
 30
0.0
 40
0.057619591492559
100
AcDbArc
 50
-179.9276651853524
 51
-89.92766518504105
  0
ARC
  5
2F9
330
46
100
AcDbEntity
  8
0
  6
Continuous
 62
     7
100
AcDbCircle
 10
329.869495273223
 20
164.6837306779401
 30
0.0
 40
0.0576922891758613
100
AcDbArc
 50
180.0
 51
-90.0
  0
ARC
  5
2FA
330
46
100
AcDbEntity
  8
0
  6
Continuous
 62
     7
100
AcDbCircle
 10
329.869495273223
 20
164.9568445304274
 30
0.0
 40
0.0576922891752076
100
AcDbArc
 50
90.0
 51
180.0
  0
ARC
  5
2FB
330
46
100
AcDbEntity
  8
0
  6
Continuous
 62
     7
100
AcDbCircle
 10
334.387336130657
 20
163.3138098074034
 30
0.0
 40
0.0569016875723858
100
AcDbArc
 50
-179.4434174191571
 51
-89.18787455653603
  0
ARC
  5
2FC
330
46
100
AcDbEntity
  8
0
  6
Continuous
 62
     7
100
AcDbCircle
 10
334.387336130657
 20
163.7153838296776
 30
0.0
 40
0.0569016875725405
100
AcDbArc
 50
89.18787455653603
 51
179.443417419243
  0
ARC
  5
2FD
330
46
100
AcDbEntity
  8
0
  6
Continuous
 62
     7
100
AcDbCircle
 10
334.387336130657
 20
164.5691424171481
 30
0.0
 40
0.0569016875725405
100
AcDbArc
 50
89.18787455653603
 51
179.4434174192716
  0
ARC
  5
2FE
330
46
100
AcDbEntity
  8
0
  6
Continuous
 62
     7
100
AcDbCircle
 10
334.387336130657
 20
164.1721975331617
 30
0.0
 40
0.0569016875723858
100
AcDbArc
 50
-179.4434174191571
 51
-89.18787455653725
  0
ARC
  5
2FF
330
46
100
AcDbEntity
  8
0
  6
Continuous
 62
     7
100
AcDbCircle
 10
326.9748292515241
 20
163.3138098074034
 30
0.0
 40
0.0569016875724995
100
AcDbArc
 50
-179.4434174191583
 51
-89.1878745566505
  0
ARC
  5
300
330
46
100
AcDbEntity
  8
0
  6
Continuous
 62
     7
100
AcDbCircle
 10
326.9748292515241
 20
163.7153838296776
 30
0.0
 40
0.0569016875725389
100
AcDbArc
 50
89.1878745566505
 51
179.4434174192441
  0
ARC
  5
301
330
46
100
AcDbEntity
  8
0
  6
Continuous
 62
     7
100
AcDbCircle
 10
326.9748292515241
 20
164.5691424171481
 30
0.0
 40
0.0569016875725389
100
AcDbArc
 50
89.1878745566505
 51
179.4434174192727
  0
ARC
  5
302
330
46
100
AcDbEntity
  8
0
  6
Continuous
 62
     7
100
AcDbCircle
 10
326.9748292515241
 20
164.1721975331617
 30
0.0
 40
0.0569016875724995
100
AcDbArc
 50
-179.4434174191583
 51
-89.1878745566517
  0
ARC
  5
303
330
46
100
AcDbEntity
  8
0
  6
Continuous
 62
     7
100
AcDbCircle
 10
324.711418418568
 20
163.662799610993
 30
0.0
 40
0.0594801903016536
100
AcDbArc
 50
1.31237392904349
 51
90.0
  0
ARC
  5
304
330
46
100
AcDbEntity
  8
0
  6
Continuous
 62
     7
100
AcDbCircle
 10
337.3937627767321
 20
162.6126356753848
 30
0.0
 40
0.1365199011614209
100
AcDbArc
 50
-90.0
 51
0.0
  0
ARC
  5
305
330
46
100
AcDbEntity
  8
0
  6
Continuous
 62
     7
100
AcDbCircle
 10
337.3937627767321
 20
165.2380316161367
 30
0.0
 40
0.1365199011609093
100
AcDbArc
 50
0.0
 51
90.0
  0
ARC
  5
306
330
46
100
AcDbEntity
  8
0
  6
Continuous
 62
     7
100
AcDbCircle
 10
321.679081543992
 20
162.6126356753848
 30
0.0
 40
0.1365199011620462
100
AcDbArc
 50
180.0
 51
-90.0
  0
ARC
  5
307
330
46
100
AcDbEntity
  8
0
  6
Continuous
 62
     7
100
AcDbCircle
 10
321.679081543992
 20
165.2380316161367
 30
0.0
 40
0.1365199011614777
100
AcDbArc
 50
90.0
 51
180.0
  0
CIRCLE
  5
308
330
46
100
AcDbEntity
  8
1
  6
Continuous
 62
     4
100
AcDbCircle
 10
387.6454394442231
 20
127.543329709917
 30
0.0
 40
2.0
  0
CIRCLE
  5
309
330
46
100
AcDbEntity
  8
1
  6
Continuous
 62
     4
100
AcDbCircle
 10
387.6454394442231
 20
127.543329709917
 30
0.0
 40
1.0
  0
SPLINE
  5
30A
330
46
100
AcDbEntity
  8
0
  6
Continuous
 62
     7
100
AcDbSpline
210
0.0
220
0.0
230
1.0
 70
     8
 71
     3
 72
    13
 73
     9
 74
     7
 42
0.0000000001
 43
0.0000000001
 44
0.00000001
 40
0.0
 40
0.0
 40
0.0
 40
0.0
 40
0.0353323702701502
 40
0.0704203827951226
 40
0.1027084056751393
 40
0.1352293371689026
 40
0.1740111215768369
 40
0.2125287438774993
 40
0.2125287438774993
 40
0.2125287438774993
 40
0.2125287438774993
 10
333.00608034204
 20
164.8753452443437
 30
0.0
 10
333.0051941478933
 20
164.8871671497467
 30
0.0
 10
333.0034278884952
 20
164.9107292005655
 30
0.0
 10
332.9889717558203
 20
164.9424956839719
 30
0.0
 10
332.9682840294377
 20
164.9688670928967
 30
0.0
 10
332.9420264717809
 20
164.9913760283387
 30
0.0
 10
332.9097330424712
 20
165.0103442082421
 30
0.0
 10
332.8838476489173
 20
165.0131424700651
 30
0.0
 10
332.870949182364
 20
165.0145368196026
 30
0.0
 11
333.00608034204
 21
164.8753452443437
 31
0.0
 11
333.0013712634999
 21
164.9103623968294
 31
0.0
 11
332.9873653972477
 21
164.9425338800635
 31
0.0
 11
332.967586140329
 21
164.9680544093927
 31
0.0
 11
332.9430114812857
 21
164.9893545764843
 31
0.0
 11
332.9088612214721
 21
165.0077335469811
 31
0.0
 11
332.870949182364
 21
165.0145368196026
 31
0.0
  0
SPLINE
  5
30B
330
46
100
AcDbEntity
  8
0
  6
Continuous
 62
     7
100
AcDbSpline
210
0.0
220
0.0
230
1.0
 70
     8
 71
     3
 72
    13
 73
     9
 74
     7
 42
0.0000000001
 43
0.0000000001
 44
0.00000001
 40
0.0
 40
0.0
 40
0.0
 40
0.0
 40
0.0381152522468289
 40
0.0763355512011214
 40
0.1127548768763196
 40
0.1486421571416927
 40
0.1827729054949675
 40
0.2174479487769028
 40
0.2174479487769028
 40
0.2174479487769028
 40
0.2174479487769028
 10
333.623528032974
 20
162.8407728363161
 30
0.0
 10
333.6107761145335
 20
162.8417410094886
 30
0.0
 10
333.5852371330063
 20
162.843680024146
 30
0.0
 10
333.5503617993486
 20
162.8594410616514
 30
0.0
 10
333.520811900619
 20
162.881799692212
 30
0.0
 10
333.4985081793127
 20
162.910158107347
 30
0.0
 10
333.4872095540505
 20
162.9438884128389
 30
0.0
 10
333.4863017346049
 20
162.9668732863209
 30
0.0
 10
333.485844234185
 20
162.9784566351042
 30
0.0
 11
333.623528032974
 21
162.8407728363161
 31
0.0
 11
333.5857530083637
 21
162.8458541717246
 31
0.0
 11
333.5506257179958
 21
162.8609162009226
 31
0.0
 11
333.5217300459399
 21
162.8830839121052
 31
0.0
 11
333.500009397346
 21
162.9116515565567
 31
0.0
 11
333.4888720671249
 21
162.9439140403219
 31
0.0
 11
333.485844234185
 21
162.9784566351042
 31
0.0
  0
SPLINE
  5
30C
330
46
100
AcDbEntity
  8
0
  6
Continuous
 62
     7
100
AcDbSpline
210
0.0
220
0.0
230
1.0
 70
     8
 71
     3
 72
    13
 73
     9
 74
     7
 42
0.0000000001
 43
0.0000000001
 44
0.00000001
 40
0.0
 40
0.0
 40
0.0
 40
0.0
 40
0.0381152522468213
 40
0.0763355512011586
 40
0.1127548768763741
 40
0.148642157141702
 40
0.1827729054949768
 40
0.2174479487768554
 40
0.2174479487768554
 40
0.2174479487768554
 40
0.2174479487768554
 10
333.623528032974
 20
165.0145368196026
 30
0.0
 10
333.6107761145333
 20
165.0135686464302
 30
0.0
 10
333.5852371330062
 20
165.0116296317728
 30
0.0
 10
333.5503617993486
 20
164.9958685942673
 30
0.0
 10
333.520811900619
 20
164.9735099637066
 30
0.0
 10
333.4985081793127
 20
164.9451515485717
 30
0.0
 10
333.4872095540505
 20
164.9114212430797
 30
0.0
 10
333.4863017346049
 20
164.8884363695977
 30
0.0
 10
333.485844234185
 20
164.8768530208145
 30
0.0
 11
333.623528032974
 21
165.0145368196026
 31
0.0
 11
333.5857530083637
 21
165.0094554841941
 31
0.0
 11
333.5506257179958
 21
164.994393454996
 31
0.0
 11
333.5217300459399
 21
164.9722257438134
 31
0.0
 11
333.500009397346
 21
164.9436580993619
 31
0.0
 11
333.4888720671249
 21
164.9113956155967
 31
0.0
 11
333.485844234185
 21
164.8768530208145
 31
0.0
  0
SPLINE
  5
30D
330
46
100
AcDbEntity
  8
0
  6
Continuous
 62
     7
100
AcDbSpline
210
0.0
220
0.0
230
1.0
 70
     8
 71
     3
 72
    13
 73
     9
 74
     7
 42
0.0000000001
 43
0.0000000001
 44
0.00000001
 40
0.0
 40
0.0
 40
0.0
 40
0.0
 40
0.0381152522467162
 40
0.0763355512010087
 40
0.1127548768762971
 40
0.1486421571415326
 40
0.182772905494659
 40
0.2174479487765645
 40
0.2174479487765645
 40
0.2174479487765645
 40
0.2174479487765645
 10
326.211021153841
 20
162.8407728363161
 30
0.0
 10
326.1982692354005
 20
162.8417410094886
 30
0.0
 10
326.1727302538732
 20
162.843680024146
 30
0.0
 10
326.1378549202158
 20
162.8594410616514
 30
0.0
 10
326.108305021486
 20
162.881799692212
 30
0.0
 10
326.0860013001799
 20
162.9101581073469
 30
0.0
 10
326.0747026749183
 20
162.943888412839
 30
0.0
 10
326.0737948554729
 20
162.966873286321
 30
0.0
 10
326.073337355053
 20
162.9784566351042
 30
0.0
 11
326.211021153841
 21
162.8407728363161
 31
0.0
 11
326.1732461292308
 21
162.8458541717246
 31
0.0
 11
326.1381188388629
 21
162.8609162009226
 31
0.0
 11
326.1092231668069
 21
162.8830839121052
 31
0.0
 11
326.0875025182133
 21
162.9116515565567
 31
0.0
 11
326.0763651879926
 21
162.9439140403219
 31
0.0
 11
326.073337355053
 21
162.9784566351042
 31
0.0
  0
SPLINE
  5
30E
330
46
100
AcDbEntity
  8
0
  6
Continuous
 62
     7
100
AcDbSpline
210
0.0
220
0.0
230
1.0
 70
     8
 71
     3
 72
    13
 73
     9
 74
     7
 42
0.0000000001
 43
0.0000000001
 44
0.00000001
 40
0.0
 40
0.0
 40
0.0
 40
0.0
 40
0.0381152522467086
 40
0.076335551201046
 40
0.1127548768763516
 40
0.1486421571415419
 40
0.1827729054946683
 40
0.2174479487765172
 40
0.2174479487765172
 40
0.2174479487765172
 40
0.2174479487765172
 10
326.211021153841
 20
165.0145368196026
 30
0.0
 10
326.1982692354004
 20
165.0135686464301
 30
0.0
 10
326.1727302538732
 20
165.0116296317728
 30
0.0
 10
326.1378549202157
 20
164.9958685942672
 30
0.0
 10
326.1083050214861
 20
164.9735099637067
 30
0.0
 10
326.0860013001799
 20
164.9451515485717
 30
0.0
 10
326.0747026749182
 20
164.9114212430797
 30
0.0
 10
326.0737948554729
 20
164.8884363695977
 30
0.0
 10
326.073337355053
 20
164.8768530208145
 30
0.0
 11
326.211021153841
 21
165.0145368196026
 31
0.0
 11
326.1732461292308
 21
165.0094554841941
 31
0.0
 11
326.1381188388629
 21
164.994393454996
 31
0.0
 11
326.1092231668069
 21
164.9722257438134
 31
0.0
 11
326.0875025182133
 21
164.9436580993619
 31
0.0
 11
326.0763651879926
 21
164.9113956155967
 31
0.0
 11
326.073337355053
 21
164.8768530208145
 31
0.0
  0
SPLINE
  5
30F
330
46
100
AcDbEntity
  8
0
  6
Continuous
 62
     7
100
AcDbSpline
210
0.0
220
0.0
230
1.0
 70
     8
 71
     3
 72
    13
 73
     9
 74
     7
 42
0.0000000001
 43
0.0000000001
 44
0.00000001
 40
0.0
 40
0.0
 40
0.0
 40
0.0
 40
0.0303249383642202
 40
0.0604417851174347
 40
0.0959479298118087
 40
0.1315593707301196
 40
0.1736623627999218
 40
0.2160932553480981
 40
0.2160932553480981
 40
0.2160932553480981
 40
0.2160932553480981
 10
324.77004976151
 20
164.4373890839912
 30
0.0
 10
324.7693765823788
 20
164.4475282727212
 30
0.0
 10
324.7680348435135
 20
164.4677370744383
 30
0.0
 10
324.7563334825611
 20
164.4979277881723
 30
0.0
 10
324.7383075303357
 20
164.5266823211073
 30
0.0
 10
324.7112026379644
 20
164.5535157624602
 30
0.0
 10
324.6742421406417
 20
164.5716892062271
 30
0.0
 10
324.645946855684
 20
164.5737571512635
 30
0.0
 10
324.6317443355811
 20
164.574795134482
 30
0.0
 11
324.77004976151
 21
164.4373890839912
 31
0.0
 11
324.7665124623391
 21
164.4675070089093
 31
0.0
 11
324.7562152510846
 21
164.495808809183
 31
0.0
 11
324.7372389623683
 21
164.5258185872165
 31
0.0
 11
324.7116432624279
 21
164.5505781281822
 31
0.0
 11
324.6737749479827
 21
164.5689806470945
 31
0.0
 11
324.6317443355811
 21
164.574795134482
 31
0.0
  0
SPLINE
  5
310
330
46
100
AcDbEntity
  8
0
  6
Continuous
 62
     7
100
AcDbSpline
210
0.0
220
0.0
230
1.0
 70
     8
 71
     3
 72
    14
 73
    10
 74
     8
 42
0.0000000001
 43
0.0000000001
 44
0.00000001
 40
0.0
 40
0.0
 40
0.0
 40
0.0
 40
0.0375510748549527
 40
0.0754042334902341
 40
0.1094159352405153
 40
0.1434580761255385
 40
0.1709669697094042
 40
0.2205583987494757
 40
0.3151356117045564
 40
0.3151356117045564
 40
0.3151356117045564
 40
0.3151356117045564
 10
324.634759888523
 20
163.3154857247346
 30
0.0
 10
324.6473107282264
 20
163.3162276811676
 30
0.0
 10
324.672513374253
 20
163.3177175627842
 30
0.0
 10
324.707081978631
 20
163.3316929297489
 30
0.0
 10
324.7345779454055
 20
163.3543184969203
 30
0.0
 10
324.7541564656525
 20
163.3800525686425
 30
0.0
 10
324.766500635091
 20
163.4154636536911
 30
0.0
 10
324.7696607686
 20
163.4729955513994
 30
0.0
 10
324.7703988269179
 20
163.520962006917
 30
0.0
 10
324.770883006402
 20
163.5524288613966
 30
0.0
 11
324.634759888523
 21
163.3154857247346
 31
0.0
 11
324.6720702616124
 21
163.3197306373006
 31
0.0
 11
324.7071728374528
 21
163.3338964690106
 31
0.0
 11
324.7336394296343
 21
163.3552580081464
 31
0.0
 11
324.7537287425185
 21
163.3827404910014
 31
0.0
 11
324.7631385664665
 21
163.4085899482389
 31
0.0
 11
324.7686060245474
 21
163.4578790620103
 31
0.0
 11
324.770883006402
 21
163.5524288613966
 31
0.0
  0
SPLINE
  5
311
330
46
100
AcDbEntity
  8
0
  6
Continuous
 62
     7
100
AcDbSpline
210
0.0
220
0.0
230
1.0
 70
     8
 71
     3
 72
    13
 73
     9
 74
     7
 42
0.0000000001
 43
0.0000000001
 44
0.00000001
 40
0.0
 40
0.0
 40
0.0
 40
0.0
 40
0.032839465007561
 40
0.0655975995952789
 40
0.1022664447832108
 40
0.1389211607507295
 40
0.1782532813534511
 40
0.2177267691613988
 40
0.2177267691613988
 40
0.2177267691613988
 40
0.2177267691613988
 10
323.3564167372961
 20
163.3154857247346
 30
0.0
 10
323.3454338456597
 20
163.3163458795471
 30
0.0
 10
323.3234952626835
 20
163.3180640589075
 30
0.0
 10
323.2917821936323
 20
163.3318223268204
 30
0.0
 10
323.2622626916457
 20
163.3515948661074
 30
0.0
 10
323.2361532194333
 20
163.3789912519718
 30
0.0
 10
323.2176823215594
 20
163.4138668504592
 30
0.0
 10
323.2153685634461
 20
163.4402556534639
 30
0.0
 10
323.214209609096
 20
163.4534737240387
 30
0.0
 11
323.3564167372961
 21
163.3154857247346
 31
0.0
 11
323.3238682053936
 21
163.3198473222603
 31
0.0
 11
323.2934869088014
 21
163.332097718133
 31
0.0
 11
323.2631116201616
 21
163.3526390434912
 31
0.0
 11
323.2380430582231
 21
163.3793810592154
 31
0.0
 11
323.2202690277029
 21
163.4144680874477
 31
0.0
 11
323.214209609096
 21
163.4534737240387
 31
0.0
  0
SPLINE
  5
312
330
46
100
AcDbEntity
  8
0
  6
Continuous
 62
     7
100
AcDbSpline
210
0.0
220
0.0
230
1.0
 70
     8
 71
     3
 72
    13
 73
     9
 74
     7
 42
0.0000000001
 43
0.0000000001
 44
0.00000001
 40
0.0
 40
0.0
 40
0.0
 40
0.0
 40
0.1486423989486759
 40
0.2982382234602402
 40
0.4390496453781339
 40
0.5790300758309673
 40
0.7141201510144566
 40
0.8476890380265226
 40
0.8476890380265226
 40
0.8476890380265226
 40
0.8476890380265226
 10
322.978480661372
 20
162.8361304719189
 30
0.0
 10
322.9288478755886
 20
162.8389791192908
 30
0.0
 10
322.8292639482427
 20
162.8446946858953
 30
0.0
 10
322.688459319855
 20
162.8891969244802
 30
0.0
 10
322.5604006392861
 20
162.9561215645832
 30
0.0
 10
322.457126671551
 20
163.0508541171155
 30
0.0
 10
322.3857241034557
 20
163.1711708081518
 30
0.0
 10
322.3752747320143
 20
163.2609627085168
 30
0.0
 10
322.370079629264
 20
163.3056044509565
 30
0.0
 11
322.978480661372
 21
162.8361304719189
 31
0.0
 11
322.8305605128243
 21
162.8507657860206
 31
0.0
 11
322.6874268980556
 21
162.8942592227041
 31
0.0
 11
322.5636288261766
 21
162.9613553771511
 31
0.0
 11
322.4611546185486
 21
163.0567155243865
 31
0.0
 11
322.3946854302773
 21
163.1743215421902
 31
0.0
 11
322.370079629264
 21
163.3056044509565
 31
0.0
  0
SPLINE
  5
313
330
46
100
AcDbEntity
  8
0
  6
Continuous
 62
     7
100
AcDbSpline
210
0.0
220
0.0
230
1.0
 70
     8
 71
     3
 72
    13
 73
     9
 74
     7
 42
0.0000000001
 43
0.0000000001
 44
0.00000001
 40
0.0
 40
0.0
 40
0.0
 40
0.0
 40
0.032839465007561
 40
0.0655975995952896
 40
0.1022664447832373
 40
0.1389211607507767
 40
0.178253281353473
 40
0.2177267691613645
 40
0.2177267691613645
 40
0.2177267691613645
 40
0.2177267691613645
 10
323.3564167372961
 20
164.574795134482
 30
0.0
 10
323.3454338456597
 20
164.5739349796695
 30
0.0
 10
323.3234952626834
 20
164.5722168003091
 30
0.0
 10
323.2917821936323
 20
164.5584585323961
 30
0.0
 10
323.2622626916457
 20
164.5386859931092
 30
0.0
 10
323.2361532194334
 20
164.5112896072447
 30
0.0
 10
323.2176823215593
 20
164.4764140087574
 30
0.0
 10
323.215368563446
 20
164.4500252057528
 30
0.0
 10
323.214209609096
 20
164.4368071351779
 30
0.0
 11
323.3564167372961
 21
164.574795134482
 31
0.0
 11
323.3238682053936
 21
164.5704335369563
 31
0.0
 11
323.2934869088014
 21
164.5581831410835
 31
0.0
 11
323.2631116201616
 21
164.5376418157254
 31
0.0
 11
323.2380430582231
 21
164.5108998000011
 31
0.0
 11
323.2202690277029
 21
164.4758127717689
 31
0.0
 11
323.214209609096
 21
164.4368071351779
 31
0.0
  0
SPLINE
  5
314
330
46
100
AcDbEntity
  8
0
  6
Continuous
 62
     7
100
AcDbSpline
210
0.0
220
0.0
230
1.0
 70
     8
 71
     3
 72
    13
 73
     9
 74
     7
 42
0.0000000001
 43
0.0000000001
 44
0.00000001
 40
0.0
 40
0.0
 40
0.0
 40
0.0
 40
0.1486423989487325
 40
0.2982382234603511
 40
0.4390496453783448
 40
0.579030075831095
 40
0.7141201510145563
 40
0.8476890380266119
 40
0.8476890380266119
 40
0.8476890380266119
 40
0.8476890380266119
 10
324.955519493538
 20
162.8361304719189
 30
0.0
 10
325.0051522793214
 20
162.8389791192907
 30
0.0
 10
325.1047362066673
 20
162.8446946858953
 30
0.0
 10
325.2455408350553
 20
162.8891969244802
 30
0.0
 10
325.3735995156241
 20
162.9561215645832
 30
0.0
 10
325.4768734833592
 20
163.0508541171155
 30
0.0
 10
325.5482760514543
 20
163.1711708081518
 30
0.0
 10
325.5587254228956
 20
163.2609627085168
 30
0.0
 10
325.563920525646
 20
163.3056044509565
 30
0.0
 11
324.955519493538
 21
162.8361304719189
 31
0.0
 11
325.1034396420857
 21
162.8507657860206
 31
0.0
 11
325.2465732568545
 21
162.8942592227041
 31
0.0
 11
325.3703713287337
 21
162.9613553771511
 31
0.0
 11
325.4728455363615
 21
163.0567155243865
 31
0.0
 11
325.5393147246327
 21
163.1743215421902
 31
0.0
 11
325.563920525646
 21
163.3056044509565
 31
0.0
  0
SPLINE
  5
315
330
46
100
AcDbEntity
  8
0
  6
Continuous
 62
     7
100
AcDbSpline
210
0.0
220
0.0
230
1.0
 70
     8
 71
     3
 72
    13
 73
     9
 74
     7
 42
0.0000000001
 43
0.0000000001
 44
0.00000001
 40
0.0
 40
0.0
 40
0.0
 40
0.0
 40
0.1486423989487325
 40
0.2982382234603429
 40
0.439049645378323
 40
0.5790300758310345
 40
0.71412015101457
 40
0.8476890380266257
 40
0.8476890380266257
 40
0.8476890380266257
 40
0.8476890380266257
 10
324.955519493538
 20
165.0145368196026
 30
0.0
 10
325.0051522793214
 20
165.0116881722307
 30
0.0
 10
325.1047362066672
 20
165.0059726056261
 30
0.0
 10
325.2455408350552
 20
164.9614703670414
 30
0.0
 10
325.3735995156241
 20
164.8945457269383
 30
0.0
 10
325.4768734833593
 20
164.7998131744061
 30
0.0
 10
325.5482760514543
 20
164.6794964833697
 30
0.0
 10
325.5587254228956
 20
164.5897045830047
 30
0.0
 10
325.563920525646
 20
164.545062840565
 30
0.0
 11
324.955519493538
 21
165.0145368196026
 31
0.0
 11
325.1034396420857
 21
164.9999015055008
 31
0.0
 11
325.2465732568545
 21
164.9564080688174
 31
0.0
 11
325.3703713287337
 21
164.8893119143705
 31
0.0
 11
325.4728455363615
 21
164.7939517671351
 31
0.0
 11
325.5393147246327
 21
164.6763457493313
 31
0.0
 11
325.563920525646
 21
164.545062840565
 31
0.0
  0
SPLINE
  5
316
330
46
100
AcDbEntity
  8
0
  6
Continuous
 62
     7
100
AcDbSpline
210
0.0
220
0.0
230
1.0
 70
     8
 71
     3
 72
    13
 73
     9
 74
     7
 42
0.0000000001
 43
0.0000000001
 44
0.00000001
 40
0.0
 40
0.0
 40
0.0
 40
0.0
 40
0.1486423989486759
 40
0.2982382234602319
 40
0.439049645378112
 40
0.5790300758309067
 40
0.7141201510144701
 40
0.8476890380265362
 40
0.8476890380265362
 40
0.8476890380265362
 40
0.8476890380265362
 10
322.978480661372
 20
165.0145368196026
 30
0.0
 10
322.9288478755886
 20
165.0116881722307
 30
0.0
 10
322.8292639482425
 20
165.0059726056261
 30
0.0
 10
322.688459319855
 20
164.9614703670414
 30
0.0
 10
322.5604006392859
 20
164.8945457269382
 30
0.0
 10
322.457126671551
 20
164.7998131744062
 30
0.0
 10
322.3857241034557
 20
164.6794964833697
 30
0.0
 10
322.3752747320143
 20
164.5897045830047
 30
0.0
 10
322.370079629264
 20
164.545062840565
 30
0.0
 11
322.978480661372
 21
165.0145368196026
 31
0.0
 11
322.8305605128243
 21
164.9999015055008
 31
0.0
 11
322.6874268980556
 21
164.9564080688174
 31
0.0
 11
322.5636288261766
 21
164.8893119143705
 31
0.0
 11
322.4611546185486
 21
164.7939517671351
 31
0.0
 11
322.3946854302773
 21
164.6763457493313
 31
0.0
 11
322.370079629264
 21
164.545062840565
 31
0.0
  0
SPLINE
  5
317
330
46
100
AcDbEntity
  8
0
  6
Continuous
 62
     7
100
AcDbSpline
210
0.0
220
0.0
230
1.0
 70
     8
 71
     3
 72
    13
 73
     9
 74
     7
 42
0.0000000001
 43
0.0000000001
 44
0.00000001
 40
0.0
 40
0.0
 40
0.0
 40
0.0
 40
0.160194710955869
 40
0.321095162735695
 40
0.4607710778824046
 40
0.6002079329852908
 40
0.7244156662360792
 40
0.8468166043869726
 40
0.8468166043869726
 40
0.8468166043869726
 40
0.8468166043869726
 10
337.779489031089
 20
165.799149307163
 30
0.0
 10
337.8329932707474
 20
165.7959083410002
 30
0.0
 10
337.9402374640022
 20
165.7894121305371
 30
0.0
 10
338.0871353617656
 20
165.738616712087
 30
0.0
 10
338.2140953248065
 20
165.6628567499392
 30
0.0
 10
338.3089644409201
 20
165.565876019286
 30
0.0
 10
338.3743996791595
 20
165.4516692178807
 30
0.0
 10
338.3839721428801
 20
165.3692657900627
 30
0.0
 10
338.388723308089
 20
165.3283659432955
 30
0.0
 11
337.779489031089
 21
165.799149307163
 31
0.0
 11
337.938788049567
 21
165.7822328024951
 31
0.0
 11
338.0912945600448
 21
165.7309422610199
 31
0.0
 11
338.2104375954277
 21
165.6580430265121
 31
0.0
 11
338.3077001619438
 21
165.5581299156823
 31
0.0
 11
338.3665304306224
 21
165.448738140459
 31
0.0
 11
338.388723308089
 21
165.3283659432955
 31
0.0
  0
SPLINE
  5
318
330
46
100
AcDbEntity
  8
0
  6
Continuous
 62
     7
100
AcDbSpline
210
0.0
220
0.0
230
1.0
 70
     8
 71
     3
 72
    13
 73
     9
 74
     7
 42
0.0000000001
 43
0.0000000001
 44
0.00000001
 40
0.0
 40
0.0
 40
0.0
 40
0.0
 40
0.160194710955872
 40
0.321095162735698
 40
0.4607710778824224
 40
0.600207932985329
 40
0.7244156662360923
 40
0.8468166043869297
 40
0.8468166043869297
 40
0.8468166043869297
 40
0.8468166043869297
 10
337.779489031089
 20
162.0515179843585
 30
0.0
 10
337.8329932707472
 20
162.0547589505212
 30
0.0
 10
337.9402374640022
 20
162.0612551609845
 30
0.0
 10
338.0871353617653
 20
162.1120505794345
 30
0.0
 10
338.2140953248065
 20
162.1878105415823
 30
0.0
 10
338.30896444092
 20
162.2847912722355
 30
0.0
 10
338.3743996791596
 20
162.3989980736409
 30
0.0
 10
338.38397214288
 20
162.4814015014589
 30
0.0
 10
338.388723308089
 20
162.522301348226
 30
0.0
 11
337.779489031089
 21
162.0515179843585
 31
0.0
 11
337.938788049567
 21
162.0684344890264
 31
0.0
 11
338.0912945600448
 21
162.1197250305016
 31
0.0
 11
338.2104375954277
 21
162.1926242650094
 31
0.0
 11
338.3077001619438
 21
162.2925373758393
 31
0.0
 11
338.3665304306224
 21
162.4019291510625
 31
0.0
 11
338.388723308089
 21
162.522301348226
 31
0.0
  0
SPLINE
  5
319
330
46
100
AcDbEntity
  8
0
  6
Continuous
 62
     7
100
AcDbSpline
210
0.0
220
0.0
230
1.0
 70
     8
 71
     3
 72
    13
 73
     9
 74
     7
 42
0.0000000001
 43
0.0000000001
 44
0.00000001
 40
0.0
 40
0.0
 40
0.0
 40
0.0
 40
0.160194710955872
 40
0.3210951627356441
 40
0.4607710778824655
 40
0.6002079329855308
 40
0.7244156662364826
 40
0.8468166043873613
 40
0.8468166043873613
 40
0.8468166043873613
 40
0.8468166043873613
 10
321.293355289635
 20
162.0515179843585
 30
0.0
 10
321.2398510499766
 20
162.0547589505213
 30
0.0
 10
321.1326068567219
 20
162.0612551609845
 30
0.0
 10
320.9857089589584
 20
162.1120505794346
 30
0.0
 10
320.8587489959175
 20
162.1878105415823
 30
0.0
 10
320.7638798798037
 20
162.2847912722356
 30
0.0
 10
320.6984446415637
 20
162.3989980736408
 30
0.0
 10
320.6888721778431
 20
162.4814015014589
 30
0.0
 10
320.684121012634
 20
162.522301348226
 30
0.0
 11
321.293355289635
 21
162.0515179843585
 31
0.0
 11
321.134056271157
 21
162.0684344890264
 31
0.0
 11
320.9815497606792
 21
162.1197250305016
 31
0.0
 11
320.8624067252962
 21
162.1926242650094
 31
0.0
 11
320.7651441587799
 21
162.2925373758393
 31
0.0
 11
320.7063138901009
 21
162.4019291510625
 31
0.0
 11
320.684121012634
 21
162.522301348226
 31
0.0
  0
SPLINE
  5
31A
330
46
100
AcDbEntity
  8
0
  6
Continuous
 62
     7
100
AcDbSpline
210
0.0
220
0.0
230
1.0
 70
     8
 71
     3
 72
    13
 73
     9
 74
     7
 42
0.0000000001
 43
0.0000000001
 44
0.00000001
 40
0.0
 40
0.0
 40
0.0
 40
0.0
 40
0.160194710955869
 40
0.3210951627356411
 40
0.4607710778824476
 40
0.6002079329854925
 40
0.7244156662364692
 40
0.8468166043874038
 40
0.8468166043874038
 40
0.8468166043874038
 40
0.8468166043874038
 10
321.293355289635
 20
165.799149307163
 30
0.0
 10
321.2398510499766
 20
165.7959083410002
 30
0.0
 10
321.132606856722
 20
165.7894121305371
 30
0.0
 10
320.9857089589584
 20
165.7386167120869
 30
0.0
 10
320.8587489959174
 20
165.6628567499393
 30
0.0
 10
320.7638798798035
 20
165.565876019286
 30
0.0
 10
320.6984446415637
 20
165.4516692178807
 30
0.0
 10
320.6888721778431
 20
165.3692657900627
 30
0.0
 10
320.684121012634
 20
165.3283659432955
 30
0.0
 11
321.293355289635
 21
165.799149307163
 31
0.0
 11
321.134056271157
 21
165.7822328024951
 31
0.0
 11
320.9815497606792
 21
165.7309422610199
 31
0.0
 11
320.8624067252962
 21
165.6580430265121
 31
0.0
 11
320.7651441587799
 21
165.5581299156823
 31
0.0
 11
320.7063138901009
 21
165.448738140459
 31
0.0
 11
320.684121012634
 21
165.3283659432955
 31
0.0
  0
MTEXT
  5
31B
330
46
100
AcDbEntity
  8
0
 62
     4
100
AcDbMText
 10
273.910886235812
 20
165.643230709917
 30
0.0
 40
2.0
 41
0.0
 71
     5
 72
     1
  1
 
  7
CONVERTER_13
 73
     1
 44
1.02040816326531
  0
MTEXT
  5
31C
330
46
100
AcDbEntity
  8
0
 62
     4
100
AcDbMText
 10
273.910886235812
 20
161.343242709917
 30
0.0
 40
2.0
 41
0.0
 71
     5
 72
     1
  1
 
  7
CONVERTER_13
 73
     1
 44
1.02040816326531
  0
MTEXT
  5
31D
330
46
100
AcDbEntity
  8
0
 62
     4
100
AcDbMText
 10
273.910886235812
 20
157.043254709917
 30
0.0
 40
2.0
 41
0.0
 71
     5
 72
     1
  1
 
  7
CONVERTER_13
 73
     1
 44
1.02040816326531
  0
MTEXT
  5
31E
330
46
100
AcDbEntity
  8
0
 62
     4
100
AcDbMText
 10
273.910886235812
 20
152.743266709917
 30
0.0
 40
2.0
 41
0.0
 71
     5
 72
     1
  1
 
  7
CONVERTER_13
 73
     1
 44
1.02040816326531
  0
MTEXT
  5
31F
330
46
100
AcDbEntity
  8
0
 62
     4
100
AcDbMText
 10
273.910886235812
 20
148.443278709917
 30
0.0
 40
2.0
 41
0.0
 71
     5
 72
     1
  1
 
  7
CONVERTER_13
 73
     1
 44
1.02040816326531
  0
MTEXT
  5
320
330
46
100
AcDbEntity
  8
0
 62
     4
100
AcDbMText
 10
273.910886235812
 20
144.143290709917
 30
0.0
 40
2.0
 41
0.0
 71
     5
 72
     1
  1
 
  7
CONVERTER_13
 73
     1
 44
1.02040816326531
  0
MTEXT
  5
321
330
46
100
AcDbEntity
  8
0
 62
     4
100
AcDbMText
 10
273.910886235812
 20
139.843302709917
 30
0.0
 40
2.0
 41
0.0
 71
     5
 72
     1
  1
 
  7
CONVERTER_13
 73
     1
 44
1.02040816326531
  0
MTEXT
  5
322
330
46
100
AcDbEntity
  8
0
 62
     4
100
AcDbMText
 10
273.910886235812
 20
135.543314709917
 30
0.0
 40
2.0
 41
0.0
 71
     5
 72
     1
  1
 
  7
CONVERTER_13
 73
     1
 44
1.02040816326531
  0
MTEXT
  5
323
330
46
100
AcDbEntity
  8
0
 62
     4
100
AcDbMText
 10
273.910886235812
 20
131.243326709917
 30
0.0
 40
2.0
 41
0.0
 71
     5
 72
     1
  1
 
  7
CONVERTER_13
 73
     1
 44
1.02040816326531
  0
TEXT
  5
325
330
46
100
AcDbEntity
  8
0
 62
     4
100
AcDbText
 10
319.7384819556701
 20
151.9341947618201
 30
0.0
 40
2.5
  1
vertraulich / confidential
 41
0.765
  7
CONVERTER_14
100
AcDbText
  0
MTEXT
  5
327
330
46
100
AcDbEntity
  8
0
 62
     7
100
AcDbMText
 10
274.310886235812
 20
126.8979560370357
 30
0.0
 40
1.3
 41
0.0
 71
     8
 72
     1
  1
EMPB
  7
CONVERTER_15
 73
     1
 44
0.7202881152461
  0
MTEXT
  5
328
330
46
100
AcDbEntity
  8
0
 62
     4
100
AcDbMText
 10
386.3336016494911
 20
147.293329709917
 30
0.0
 40
3.5
 41
0.0
 71
     5
 72
     1
  1
1
  7
CONVERTER_13
 73
     1
 44
1.02040816326531
  0
MTEXT
  5
329
330
46
100
AcDbEntity
  8
0
 62
     4
100
AcDbMText
 10
393.126689680136
 20
147.293329709917
 30
0.0
 40
3.5
 41
0.0
 71
     5
 72
     1
  1
1
  7
CONVERTER_13
 73
     1
 44
1.02040816326531
  0
MTEXT
  5
32A
330
46
100
AcDbEntity
  8
0
 62
     1
100
AcDbMText
 10
425.710886235812
 20
130.1788487956449
 30
0.0
 40
5.0
 41
0.0
 71
     5
 72
     1
  1
20526-0-14
  7
CONVERTER_15
 73
     1
 44
1.02040816326531
  0
MTEXT
  5
32B
330
46
100
AcDbEntity
  8
0
 62
     1
100
AcDbMText
 10
425.710886235812
 20
143.3034808919752
 30
0.0
 40
5.0
 41
0.0
 71
     5
 72
     1
  1
 
  7
CONVERTER_13
 73
     1
 44
1.02040816326531
  0
MTEXT
  5
32D
330
46
100
AcDbEntity
  8
0
 62
     4
100
AcDbMText
 10
405.210886235812
 20
161.2325672537592
 30
0.0
 40
3.0
 41
0.0
 71
     5
 72
     1
  1
T-STOP-GLEITSCHIENE KOPFMONTAGE BS NEUTRAL
  7
CONVERTER_16
 73
     1
 44
1.02040816326531
  0
MTEXT
  5
32E
330
46
100
AcDbEntity
  8
0
 62
     3
100
AcDbMText
 10
405.481761518673
 20
154.3443006488655
 30
0.0
 40
2.5
 41
0.0
 71
     5
 72
     1
  1
FRAME MOUNT HINGE SIDE WITH T-STOP GUIDE RAIL NEUTRAL
  7
CONVERTER_16
 73
     1
 44
1.02040816326531
  0
MTEXT
  5
32F
330
46
100
AcDbEntity
  8
0
 62
     3
100
AcDbMText
 10
360.838164553994
 20
140.2814988406201
 30
0.0
 40
2.5
 41
0.0
 71
     5
 72
     1
  1
tbt1
  7
CONVERTER_15
 73
     1
 44
1.02040816326531
  0
MTEXT
  5
330
330
46
100
AcDbEntity
  8
0
 62
     3
100
AcDbMText
 10
349.453894422227
 20
134.7034653783935
 30
0.0
 40
2.5
 41
0.0
 71
     5
 72
     1
  1
 
  7
CONVERTER_13
 73
     1
 44
1.02040816326531
  0
MTEXT
  5
331
330
46
100
AcDbEntity
  8
0
 62
     3
100
AcDbMText
 10
349.453894422227
 20
127.2034653783935
 30
0.0
 40
2.5
 41
0.0
 71
     5
 72
     1
  1
 
  7
CONVERTER_13
 73
     1
 44
1.02040816326531
  0
MTEXT
  5
333
330
46
100
AcDbEntity
  8
0
 62
     3
100
AcDbMText
 10
343.746116303994
 20
140.2814988406201
 30
0.0
 40
2.5
 41
0.0
 71
     5
 72
     1
  1
22.02.2010
  7
CONVERTER_17
 73
     1
 44
1.02040816326531
  0
MTEXT
  5
334
330
46
100
AcDbEntity
  8
0
 62
     3
100
AcDbMText
 10
360.838164553994
 20
144.6069449277554
 30
0.0
 40
2.5
 41
0.0
 71
     5
 72
     1
  1
tbt3
  7
CONVERTER_15
 73
     1
 44
1.02040816326531
  0
MTEXT
  5
335
330
46
100
AcDbEntity
  8
0
 62
     3
100
AcDbMText
 10
343.746116303994
 20
144.6069449277554
 30
0.0
 40
2.5
 41
0.0
 71
     5
 72
     1
  1
17.02.2010
  7
CONVERTER_17
 73
     1
 44
1.02040816326531
  0
MTEXT
  5
336
330
46
100
AcDbEntity
  8
0
 62
     7
100
AcDbMText
 10
280.910886235812
 20
161.343242709917
 30
0.0
 40
2.0
 41
0.0
 71
     5
 72
     1
  1
 
  7
CONVERTER_13
 73
     1
 44
1.02040816326531
  0
MTEXT
  5
337
330
46
100
AcDbEntity
  8
0
 62
     7
100
AcDbMText
 10
311.710886235812
 20
161.343242709917
 30
0.0
 40
2.0
 41
0.0
 71
     5
 72
     1
  1
 
  7
CONVERTER_13
 73
     1
 44
1.02040816326531
  0
MTEXT
  5
338
330
46
100
AcDbEntity
  8
0
 62
     7
100
AcDbMText
 10
311.710886235812
 20
157.043254709917
 30
0.0
 40
2.0
 41
0.0
 71
     5
 72
     1
  1
 
  7
CONVERTER_13
 73
     1
 44
1.02040816326531
  0
MTEXT
  5
339
330
46
100
AcDbEntity
  8
0
 62
     7
100
AcDbMText
 10
311.710886235812
 20
152.743266709917
 30
0.0
 40
2.0
 41
0.0
 71
     5
 72
     1
  1
 
  7
CONVERTER_13
 73
     1
 44
1.02040816326531
  0
MTEXT
  5
33A
330
46
100
AcDbEntity
  8
0
 62
     7
100
AcDbMText
 10
311.710886235812
 20
148.443278709917
 30
0.0
 40
2.0
 41
0.0
 71
     5
 72
     1
  1
 
  7
CONVERTER_13
 73
     1
 44
1.02040816326531
  0
MTEXT
  5
33B
330
46
100
AcDbEntity
  8
0
 62
     7
100
AcDbMText
 10
300.510886235812
 20
165.643230709917
 30
0.0
 40
2.0
 41
0.0
 71
     5
 72
     1
  1
 
  7
CONVERTER_15
 73
     1
 44
1.02040816326531
  0
MTEXT
  5
33C
330
46
100
AcDbEntity
  8
0
 62
     7
100
AcDbMText
 10
300.510886235812
 20
148.443278709917
 30
0.0
 40
2.0
 41
0.0
 71
     5
 72
     1
  1
 
  7
CONVERTER_15
 73
     1
 44
1.02040816326531
  0
MTEXT
  5
33D
330
46
100
AcDbEntity
  8
0
 62
     7
100
AcDbMText
 10
300.510886235812
 20
139.843302709917
 30
0.0
 40
2.0
 41
0.0
 71
     5
 72
     1
  1
 
  7
CONVERTER_15
 73
     1
 44
1.02040816326531
  0
MTEXT
  5
33E
330
46
100
AcDbEntity
  8
0
 62
     7
100
AcDbMText
 10
300.510886235812
 20
135.543314709917
 30
0.0
 40
2.0
 41
0.0
 71
     5
 72
     1
  1
 
  7
CONVERTER_15
 73
     1
 44
1.02040816326531
  0
MTEXT
  5
33F
330
46
100
AcDbEntity
  8
0
 62
     7
100
AcDbMText
 10
290.710886235812
 20
165.643230709917
 30
0.0
 40
2.0
 41
0.0
 71
     5
 72
     1
  1
 
  7
CONVERTER_17
 73
     1
 44
1.02040816326531
  0
MTEXT
  5
340
330
46
100
AcDbEntity
  8
0
 62
     7
100
AcDbMText
 10
290.710886235812
 20
157.043254709917
 30
0.0
 40
2.0
 41
0.0
 71
     5
 72
     1
  1
 
  7
CONVERTER_17
 73
     1
 44
1.02040816326531
  0
MTEXT
  5
341
330
46
100
AcDbEntity
  8
0
 62
     7
100
AcDbMText
 10
290.710886235812
 20
152.743266709917
 30
0.0
 40
2.0
 41
0.0
 71
     5
 72
     1
  1
 
  7
CONVERTER_17
 73
     1
 44
1.02040816326531
  0
MTEXT
  5
342
330
46
100
AcDbEntity
  8
0
 62
     7
100
AcDbMText
 10
290.710886235812
 20
144.143290709917
 30
0.0
 40
2.0
 41
0.0
 71
     5
 72
     1
  1
 
  7
CONVERTER_17
 73
     1
 44
1.02040816326531
  0
MTEXT
  5
343
330
46
100
AcDbEntity
  8
0
 62
     7
100
AcDbMText
 10
290.710886235812
 20
135.543314709917
 30
0.0
 40
2.0
 41
0.0
 71
     5
 72
     1
  1
 
  7
CONVERTER_17
 73
     1
 44
1.02040816326531
  0
MTEXT
  5
344
330
46
100
AcDbEntity
  8
0
 62
     7
100
AcDbMText
 10
311.710886235812
 20
131.243326709917
 30
0.0
 40
2.0
 41
0.0
 71
     5
 72
     1
  1
X
  7
CONVERTER_13
 73
     1
 44
1.02040816326531
  0
MTEXT
  5
345
330
46
100
AcDbEntity
  8
0
 62
     7
100
AcDbMText
 10
290.710886235812
 20
139.843302709917
 30
0.0
 40
2.0
 41
0.0
 71
     5
 72
     1
  1
 
  7
CONVERTER_17
 73
     1
 44
1.02040816326531
  0
MTEXT
  5
346
330
46
100
AcDbEntity
  8
0
 62
     7
100
AcDbMText
 10
311.710886235812
 20
144.143290709917
 30
0.0
 40
2.0
 41
0.0
 71
     5
 72
     1
  1
 
  7
CONVERTER_13
 73
     1
 44
1.02040816326531
  0
MTEXT
  5
347
330
46
100
AcDbEntity
  8
0
 62
     7
100
AcDbMText
 10
300.510886235812
 20
131.243326709917
 30
0.0
 40
2.0
 41
0.0
 71
     5
 72
     1
  1
tbt3
  7
CONVERTER_15
 73
     1
 44
1.02040816326531
  0
MTEXT
  5
348
330
46
100
AcDbEntity
  8
0
 62
     7
100
AcDbMText
 10
290.710886235812
 20
131.243326709917
 30
0.0
 40
2.0
 41
0.0
 71
     5
 72
     1
  1
22.02.2010
  7
CONVERTER_17
 73
     1
 44
1.02040816326531
  0
MTEXT
  5
349
330
46
100
AcDbEntity
  8
0
 62
     7
100
AcDbMText
 10
311.710886235812
 20
135.543314709917
 30
0.0
 40
2.0
 41
0.0
 71
     5
 72
     1
  1
 
  7
CONVERTER_13
 73
     1
 44
1.02040816326531
  0
MTEXT
  5
34A
330
46
100
AcDbEntity
  8
0
 62
     7
100
AcDbMText
 10
311.710886235812
 20
139.843302709917
 30
0.0
 40
2.0
 41
0.0
 71
     5
 72
     1
  1
 
  7
CONVERTER_13
 73
     1
 44
1.02040816326531
  0
MTEXT
  5
34B
330
46
100
AcDbEntity
  8
0
 62
     7
100
AcDbMText
 10
300.510886235812
 20
144.143290709917
 30
0.0
 40
2.0
 41
0.0
 71
     5
 72
     1
  1
 
  7
CONVERTER_15
 73
     1
 44
1.02040816326531
  0
MTEXT
  5
34C
330
46
100
AcDbEntity
  8
0
 62
     7
100
AcDbMText
 10
290.710886235812
 20
148.443278709917
 30
0.0
 40
2.0
 41
0.0
 71
     5
 72
     1
  1
 
  7
CONVERTER_17
 73
     1
 44
1.02040816326531
  0
MTEXT
  5
34D
330
46
100
AcDbEntity
  8
0
 62
     7
100
AcDbMText
 10
300.510886235812
 20
152.743266709917
 30
0.0
 40
2.0
 41
0.0
 71
     5
 72
     1
  1
 
  7
CONVERTER_15
 73
     1
 44
1.02040816326531
  0
MTEXT
  5
34E
330
46
100
AcDbEntity
  8
0
 62
     7
100
AcDbMText
 10
300.510886235812
 20
157.043254709917
 30
0.0
 40
2.0
 41
0.0
 71
     5
 72
     1
  1
 
  7
CONVERTER_15
 73
     1
 44
1.02040816326531
  0
MTEXT
  5
34F
330
46
100
AcDbEntity
  8
0
 62
     7
100
AcDbMText
 10
300.510886235812
 20
161.343242709917
 30
0.0
 40
2.0
 41
0.0
 71
     5
 72
     1
  1
 
  7
CONVERTER_15
 73
     1
 44
1.02040816326531
  0
MTEXT
  5
350
330
46
100
AcDbEntity
  8
0
 62
     7
100
AcDbMText
 10
311.710886235812
 20
165.643230709917
 30
0.0
 40
2.0
 41
0.0
 71
     5
 72
     1
  1
 
  7
CONVERTER_13
 73
     1
 44
1.02040816326531
  0
MTEXT
  5
351
330
46
100
AcDbEntity
  8
0
 62
     7
100
AcDbMText
 10
280.910886235812
 20
165.643230709917
 30
0.0
 40
2.0
 41
0.0
 71
     5
 72
     1
  1
 
  7
CONVERTER_13
 73
     1
 44
1.02040816326531
  0
MTEXT
  5
352
330
46
100
AcDbEntity
  8
0
 62
     7
100
AcDbMText
 10
290.710886235812
 20
161.343242709917
 30
0.0
 40
2.0
 41
0.0
 71
     5
 72
     1
  1
 
  7
CONVERTER_17
 73
     1
 44
1.02040816326531
  0
MTEXT
  5
353
330
46
100
AcDbEntity
  8
0
 62
     7
100
AcDbMText
 10
280.910886235812
 20
157.043254709917
 30
0.0
 40
2.0
 41
0.0
 71
     5
 72
     1
  1
 
  7
CONVERTER_13
 73
     1
 44
1.02040816326531
  0
MTEXT
  5
354
330
46
100
AcDbEntity
  8
0
 62
     7
100
AcDbMText
 10
280.910886235812
 20
152.743266709917
 30
0.0
 40
2.0
 41
0.0
 71
     5
 72
     1
  1
 
  7
CONVERTER_13
 73
     1
 44
1.02040816326531
  0
MTEXT
  5
355
330
46
100
AcDbEntity
  8
0
 62
     7
100
AcDbMText
 10
280.910886235812
 20
148.443278709917
 30
0.0
 40
2.0
 41
0.0
 71
     5
 72
     1
  1
 
  7
CONVERTER_13
 73
     1
 44
1.02040816326531
  0
MTEXT
  5
356
330
46
100
AcDbEntity
  8
0
 62
     7
100
AcDbMText
 10
280.910886235812
 20
144.143290709917
 30
0.0
 40
2.0
 41
0.0
 71
     5
 72
     1
  1
 
  7
CONVERTER_13
 73
     1
 44
1.02040816326531
  0
MTEXT
  5
357
330
46
100
AcDbEntity
  8
0
 62
     7
100
AcDbMText
 10
280.910886235812
 20
139.843302709917
 30
0.0
 40
2.0
 41
0.0
 71
     5
 72
     1
  1
 
  7
CONVERTER_13
 73
     1
 44
1.02040816326531
  0
MTEXT
  5
358
330
46
100
AcDbEntity
  8
0
 62
     7
100
AcDbMText
 10
280.910886235812
 20
135.543314709917
 30
0.0
 40
2.0
 41
0.0
 71
     5
 72
     1
  1
 
  7
CONVERTER_13
 73
     1
 44
1.02040816326531
  0
MTEXT
  5
359
330
46
100
AcDbEntity
  8
0
 62
     7
100
AcDbMText
 10
280.910886235812
 20
131.243326709917
 30
0.0
 40
2.0
 41
0.0
 71
     5
 72
     1
  1
00
  7
CONVERTER_13
 73
     1
 44
1.02040816326531
  0
MTEXT
  5
35A
330
46
100
AcDbEntity
  8
0
 62
     4
100
AcDbMText
 10
389.906443652232
 20
147.293329709917
 30
0.0
 40
5.0
 41
0.0
 71
     5
 72
     1
  1
/
  7
CONVERTER_13
 73
     1
 44
1.02040816326531
  0
MTEXT
  5
35B
330
46
100
AcDbEntity
  8
0
 62
     7
100
AcDbMText
 10
311.710886235812
 20
127.1537590019701
 30
0.0
 40
1.3
 41
0.0
 71
     8
 72
     1
  1
Mitteilungs-Nr.
  7
CONVERTER_15
 73
     1
 44
0.7202881152461
  0
MTEXT
  5
35C
330
46
100
AcDbEntity
  8
0
 62
     7
100
AcDbMText
 10
311.710886235812
 20
125.3537590019701
 30
0.0
 40
1.3
 41
0.0
 71
     8
 72
     1
  1
Doc. change no.
  7
CONVERTER_15
 73
     1
 44
0.7202881152461
  0
MTEXT
  5
35D
330
46
100
AcDbEntity
  8
0
 62
     7
100
AcDbMText
 10
300.210886235812
 20
127.1537590019701
 30
0.0
 40
1.3
 41
0.0
 71
     8
 72
     1
  1
Name
  7
CONVERTER_15
 73
     1
 44
0.7202881152461
  0
MTEXT
  5
35E
330
46
100
AcDbEntity
  8
0
 62
     7
100
AcDbMText
 10
300.210886235812
 20
125.3537590019701
 30
0.0
 40
1.3
 41
0.0
 71
     8
 72
     1
  1
name
  7
CONVERTER_15
 73
     1
 44
0.7202881152461
  0
MTEXT
  5
35F
330
46
100
AcDbEntity
  8
0
 62
     7
100
AcDbMText
 10
291.210886235812
 20
127.1537590019701
 30
0.0
 40
1.3
 41
0.0
 71
     8
 72
     1
  1
Datum
  7
CONVERTER_15
 73
     1
 44
0.7202881152461
  0
MTEXT
  5
360
330
46
100
AcDbEntity
  8
0
 62
     7
100
AcDbMText
 10
291.210886235812
 20
125.3537590019701
 30
0.0
 40
1.3
 41
0.0
 71
     8
 72
     1
  1
date
  7
CONVERTER_15
 73
     1
 44
0.7202881152461
  0
MTEXT
  5
361
330
46
100
AcDbEntity
  8
0
 62
     7
100
AcDbMText
 10
280.910886235812
 20
125.3537590019701
 30
0.0
 40
1.3
 41
0.0
 71
     8
 72
     1
  1
doc.version
  7
CONVERTER_17
 73
     1
 44
0.7202881152461
  0
MTEXT
  5
362
330
46
100
AcDbEntity
  8
0
 62
     7
100
AcDbMText
 10
280.910886235812
 20
127.1537590019701
 30
0.0
 40
1.3
 41
0.0
 71
     8
 72
     1
  1
Dok.version
  7
CONVERTER_17
 73
     1
 44
0.7202881152461
  0
MTEXT
  5
364
330
46
100
AcDbEntity
  8
0
 62
     3
100
AcDbMText
 10
361.210886235812
 20
147.4908857264332
 30
0.0
 40
1.8
 41
0.0
 71
     8
 72
     1
  1
Name / name
  7
CONVERTER_18
 73
     1
 44
0.90036014405762
  0
MTEXT
  5
365
330
46
100
AcDbEntity
  8
0
 62
     3
100
AcDbMText
 10
345.210886235812
 20
147.4908857264332
 30
0.0
 40
1.8
 41
0.0
 71
     8
 72
     1
  1
Datum / date
  7
CONVERTER_18
 73
     1
 44
0.90036014405762
  0
MTEXT
  5
366
330
46
100
AcDbEntity
  8
0
 62
     3
100
AcDbMText
 10
369.524225053859
 20
145.9476418008085
 30
0.0
 40
1.8
 41
0.0
 71
     7
 72
     1
  1
Blatt / von\Psheet / of
  7
CONVERTER_15
 73
     1
 44
0.84033613445378
  0
MTEXT
  5
367
330
46
100
AcDbEntity
  8
0
 62
     3
100
AcDbMText
 10
319.44006668467
 20
134.543329709917
 30
0.0
 40
1.8
 41
0.0
 71
     4
 72
     1
  1
Ersatz f\U+00fcr:\Psubst. for:
  7
CONVERTER_15
 73
     1
 44
0.84033613445378
  0
MTEXT
  5
368
330
46
100
AcDbEntity
  8
0
 62
     3
100
AcDbMText
 10
319.44006668467
 20
128.043329709917
 30
0.0
 40
1.8
 41
0.0
 71
     4
 72
     1
  1
Ersetzt durch:\Psubst. with:
  7
CONVERTER_15
 73
     1
 44
0.84033613445378
  0
TEXT
  5
369
330
46
100
AcDbEntity
  8
0
 62
     3
100
AcDbText
 10
360.5108432358121
 20
165.393335709917
 30
0.0
 40
1.8
  1
Benennung / designation
 41
0.72
  7
CONVERTER_15
100
AcDbText
  0
MTEXT
  5
36A
330
46
100
AcDbEntity
  8
0
 62
     3
100
AcDbMText
 10
369.4257866550311
 20
140.1551179588507
 30
0.0
 40
1.8
 41
0.0
 71
     7
 72
     1
  1
Ma\U+00dfstab\Pscale
  7
CONVERTER_15
 73
     1
 44
0.84033613445378
  0
TEXT
  5
36B
330
46
100
AcDbEntity
  8
0
 62
     3
100
AcDbText
 10
369.9108862358119
 20
135.526662959417
 30
0.0
 40
1.8
  1
Sprache / language
 41
0.72
  7
CONVERTER_15
100
AcDbText
  0
TEXT
  5
36C
330
46
100
AcDbEntity
  8
0
 62
     3
100
AcDbText
 10
396.710886235812
 20
135.193329709917
 30
0.0
 40
1.8
  1
Zeichnungs-Nr. / document-no.
 41
0.72
  7
CONVERTER_15
100
AcDbText
  0
MTEXT
  5
36D
330
46
100
AcDbEntity
  8
0
 62
     3
100
AcDbMText
 10
396.710886235812
 20
145.693329709917
 30
0.0
 40
1.8
 41
0.0
 71
     7
 72
     1
  1
Material-Nr.\PID-no.
  7
CONVERTER_15
 73
     1
 44
0.84033613445378
  0
MTEXT
  5
36E
330
46
100
AcDbEntity
  8
0
 62
     3
100
AcDbMText
 10
340.2705000630131
 20
156.5102029538972
 30
0.0
 40
1.8
 41
0.0
 71
     7
 72
     1
  1
P.O. Box 13 63\P71226 Leonberg\PGermany
  7
CONVERTER_15
 73
     1
 44
0.78031212484994
  0
TEXT
  5
36F
330
46
100
AcDbEntity
  8
0
 62
     4
100
AcDbText
 10
340.2705000630131
 20
164.2416801826715
 30
0.0
 40
2.2
  1
GEZE GmbH
 41
0.9
  7
CONVERTER_13
100
AcDbText
  0
MTEXT
  5
370
330
46
100
AcDbEntity
  8
0
 62
     3
100
AcDbMText
 10
319.44006668467
 20
144.243329709917
 30
0.0
 40
1.8
 41
0.0
 71
     4
 72
     1
  1
erstellt / drawn
  7
CONVERTER_15
 73
     1
 44
0.90036014405762
  0
MTEXT
  5
371
330
46
100
AcDbEntity
  8
0
 62
     3
100
AcDbMText
 10
319.44006668467
 20
139.943329709917
 30
0.0
 40
1.8
 41
0.0
 71
     4
 72
     1
  1
gepr. / checked
  7
CONVERTER_15
 73
     1
 44
0.90036014405762
  0
MTEXT
  5
372
330
46
100
AcDbEntity
  8
0
 62
     4
100
AcDbMText
 10
382.3336016494911
 20
132.993329709917
 30
0.0
 40
3.5
 41
0.0
 71
     5
 72
     1
  1
D
  7
CONVERTER_13
 73
     1
 44
1.02040816326531
  0
MTEXT
  5
373
330
46
100
AcDbEntity
  8
1
 62
     7
100
AcDbMText
 10
228.817451441844
 20
127.7651278212935
 30
0.0
 40
2.0
 41
0.0
 71
     5
 72
     1
  1
EMPB = Erstmusterpr\U+00fcfbericht /First sample test report
  7
CONVERTER_13
 73
     1
 44
1.02040816326531
  0
MTEXT
  5
375
330
46
100
AcDbEntity
  8
0
 62
     7
100
AcDbMText
 10
-155.9318610201641
 20
126.2642060925269
 30
0.0
 40
1.3
 41
0.0
 71
     7
 72
     1
  3
Diese Zeichnung entspricht dem Entwicklungsstand des Zeichnungsdatums bzw. der letzten \U+00c4nderungseintragung. Aus der Ben\U+00fctzung der Zeichnung k\U+00f6nnen\Pkeine Anspr\U+00fcche, gleich welcher Art, einschlie\U+00dflich Schadenersatzanspr
  3
\U+00fcche, abgeleitet und gegen GEZE geltend gemacht werden. Die Zeichnung bleibt unser\PEigentum und ist Dritten nur f\U+00fcr die Vertragsdauer zur Benutzung \U+00fcberlassen. S\U+00e4mtliche sich aus der Zeichnung ergebenden Anspr\U+00fcche steh
  3
en ausschlie\U+00dflich\PGEZE zu. Ohne vorherige Zustimmung von GEZE darf diese Zeichnung weder vervielf\U+00e4ltig noch Dritten zug\U+00e4nglich gemacht werden.\PThis drawing shows the actual state of product development at the date of the drawing 
  3
or the revision date. No claims or damages in any form can bei made\Pagainst GEZE as a result of the interpretation of this drawing. This drawing remains the property of GEZE and ist made available to third paries only for\Pthe duration of contractu
  1
ral obligations. All rights connected with this drawing remain in possession of GEZE. This drawing may not bei copied of handed\Pover to third parties without the express consent of GEZE.
  7
CONVERTER_19
 73
     1
 44
0.84033613445378
  0
ENDBLK
  5
48
330
46
100
AcDbEntity
  8
0
100
AcDbBlockEnd
  0
BLOCK
  5
4B
330
49
100
AcDbEntity
  8
0
100
AcDbBlockBegin
  2
rahmen
 70
     0
 71
     0
 10
-179.289113764188
 20
124.793329709917
 30
0.0
  3
rahmen
  1

  0
INSERT
  5
4A
330
49
100
AcDbEntity
  8
1
100
AcDbBlockReference
  2
a2kl
 10
-5.28911376418799
 20
124.793329709917
 30
0.0
  0
ENDBLK
  5
4C
330
49
100
AcDbEntity
  8
0
100
AcDbBlockEnd
  0
BLOCK
  5
4E
330
4D
100
AcDbEntity
  8
0
100
AcDbBlockBegin
  2
Diagramm
 70
     0
 71
     0
 10
590.186966615906
 20
-380.604396123123
 30
0.0
  3
Diagramm
  1

  0
LINE
  5
376
330
4D
100
AcDbEntity
  8
1
  6
Continuous
 62
     3
100
AcDbLine
 10
-76.28911376418799
 20
225.5316632201409
 30
0.0
 11
-16.28911376418798
 21
225.5316632201409
 31
0.0
  0
LINE
  5
377
330
4D
100
AcDbEntity
  8
1
  6
Continuous
 62
     3
100
AcDbLine
 10
-76.28911376418799
 20
217.5316632201409
 30
0.0
 11
31.710886235812
 21
217.5316632201409
 31
0.0
  0
LINE
  5
378
330
4D
100
AcDbEntity
  8
1
  6
Continuous
 62
     3
100
AcDbLine
 10
-0.28911376418799
 20
233.5316632201409
 30
0.0
 11
31.710886235812
 21
233.5316632201409
 31
0.0
  0
LINE
  5
379
330
4D
100
AcDbEntity
  8
1
  6
Continuous
 62
     3
100
AcDbLine
 10
-0.28911376418799
 20
249.5316632201409
 30
0.0
 11
31.710886235812
 21
249.5316632201409
 31
0.0
  0
LINE
  5
37A
330
4D
100
AcDbEntity
  8
1
  6
Continuous
 62
     3
100
AcDbLine
 10
-0.28911376418799
 20
233.5316632201409
 30
0.0
 11
-0.28911376418799
 21
193.5316632201409
 31
0.0
  0
LINE
  5
37B
330
4D
100
AcDbEntity
  8
1
  6
Continuous
 62
     3
100
AcDbLine
 10
-8.28911376418798
 20
241.5316632201409
 30
0.0
 11
-8.28911376418798
 21
233.5316632201409
 31
0.0
  0
LINE
  5
37C
330
4D
100
AcDbEntity
  8
1
  6
Continuous
 62
     3
100
AcDbLine
 10
7.710886235812
 20
241.5316632201409
 30
0.0
 11
7.710886235812
 21
193.5316632201409
 31
0.0
  0
LINE
  5
37D
330
4D
100
AcDbEntity
  8
1
  6
Continuous
 62
     3
100
AcDbLine
 10
7.710886235812
 20
241.5316632201409
 30
0.0
 11
31.710886235812
 21
241.5316632201409
 31
0.0
  0
LINE
  5
37E
330
4D
100
AcDbEntity
  8
1
  6
Continuous
 62
     3
100
AcDbLine
 10
-72.28911376418799
 20
183.1316632201409
 30
0.0
 11
31.710886235812
 21
183.1316632201409
 31
0.0
  0
LINE
  5
37F
330
4D
100
AcDbEntity
  8
1
  6
Continuous
 62
     3
100
AcDbLine
 10
31.710886235812
 20
184.3316632201409
 30
0.0
 11
31.710886235812
 21
183.1316632201409
 31
0.0
  0
LINE
  5
380
330
4D
100
AcDbEntity
  8
1
  6
Continuous
 62
     3
100
AcDbLine
 10
23.710886235812
 20
184.3316632201409
 30
0.0
 11
23.710886235812
 21
183.1316632201409
 31
0.0
  0
LINE
  5
381
330
4D
100
AcDbEntity
  8
1
  6
Continuous
 62
     3
100
AcDbLine
 10
15.710886235812
 20
184.3316632201409
 30
0.0
 11
15.710886235812
 21
183.1316632201409
 31
0.0
  0
LINE
  5
382
330
4D
100
AcDbEntity
  8
1
  6
Continuous
 62
     3
100
AcDbLine
 10
7.710886235812
 20
184.3316632201409
 30
0.0
 11
7.710886235812
 21
183.1316632201409
 31
0.0
  0
LINE
  5
383
330
4D
100
AcDbEntity
  8
1
  6
Continuous
 62
     3
100
AcDbLine
 10
-0.28911376418799
 20
184.3316632201409
 30
0.0
 11
-0.28911376418799
 21
183.1316632201409
 31
0.0
  0
LINE
  5
384
330
4D
100
AcDbEntity
  8
1
  6
Continuous
 62
     3
100
AcDbLine
 10
-8.28911376418798
 20
184.3316632201409
 30
0.0
 11
-8.28911376418798
 21
183.1316632201409
 31
0.0
  0
LINE
  5
385
330
4D
100
AcDbEntity
  8
1
  6
Continuous
 62
     3
100
AcDbLine
 10
-16.28911376418798
 20
184.3316632201409
 30
0.0
 11
-16.28911376418798
 21
183.1316632201409
 31
0.0
  0
LINE
  5
386
330
4D
100
AcDbEntity
  8
1
  6
Continuous
 62
     3
100
AcDbLine
 10
-24.28911376418797
 20
184.3316632201409
 30
0.0
 11
-24.28911376418797
 21
183.1316632201409
 31
0.0
  0
LINE
  5
387
330
4D
100
AcDbEntity
  8
1
  6
Continuous
 62
     3
100
AcDbLine
 10
-32.28911376418799
 20
184.3316632201409
 30
0.0
 11
-32.28911376418799
 21
183.1316632201409
 31
0.0
  0
LINE
  5
388
330
4D
100
AcDbEntity
  8
1
  6
Continuous
 62
     3
100
AcDbLine
 10
-40.28911376418799
 20
184.3316632201409
 30
0.0
 11
-40.28911376418799
 21
183.1316632201409
 31
0.0
  0
LINE
  5
389
330
4D
100
AcDbEntity
  8
1
  6
Continuous
 62
     3
100
AcDbLine
 10
-48.28911376418799
 20
184.3316632201409
 30
0.0
 11
-48.28911376418799
 21
183.1316632201409
 31
0.0
  0
LINE
  5
38A
330
4D
100
AcDbEntity
  8
1
  6
Continuous
 62
     3
100
AcDbLine
 10
-56.28911376418799
 20
184.3316632201409
 30
0.0
 11
-56.28911376418799
 21
183.1316632201409
 31
0.0
  0
LINE
  5
38B
330
4D
100
AcDbEntity
  8
1
  6
Continuous
 62
     3
100
AcDbLine
 10
-64.28911376418799
 20
184.3316632201409
 30
0.0
 11
-64.28911376418799
 21
183.1316632201409
 31
0.0
  0
LINE
  5
38C
330
4D
100
AcDbEntity
  8
1
  6
Continuous
 62
     3
100
AcDbLine
 10
-72.28911376418799
 20
184.3316632201409
 30
0.0
 11
-72.28911376418799
 21
183.1316632201409
 31
0.0
  0
LINE
  5
38D
330
4D
100
AcDbEntity
  8
1
  6
Continuous
 62
     3
100
AcDbLine
 10
-76.28911376418799
 20
183.1316632201409
 30
0.0
 11
-72.28911376418799
 21
183.1316632201409
 31
0.0
  0
LINE
  5
38E
330
4D
100
AcDbEntity
  8
1
  6
Continuous
 62
     3
100
AcDbLine
 10
-24.28911376418797
 20
261.5316632201409
 30
0.0
 11
-24.28911376418797
 21
233.5316632201409
 31
0.0
  0
LINE
  5
38F
330
4D
100
AcDbEntity
  8
1
  6
Continuous
 62
     3
100
AcDbLine
 10
35.710886235812
 20
265.5316632201409
 30
0.0
 11
35.710886235812
 21
161.5316632201409
 31
0.0
  0
LINE
  5
390
330
4D
100
AcDbEntity
  8
1
  6
Continuous
 62
     3
100
AcDbLine
 10
-88.28911376418799
 20
265.5316632201409
 30
0.0
 11
35.710886235812
 21
265.5316632201409
 31
0.0
  0
LINE
  5
391
330
4D
100
AcDbEntity
  8
1
  6
Continuous
 62
     3
100
AcDbLine
 10
-88.28911376418799
 20
161.5316632201409
 30
0.0
 11
-88.28911376418799
 21
265.5316632201409
 31
0.0
  0
LINE
  5
392
330
4D
100
AcDbEntity
  8
1
  6
Continuous
 62
     3
100
AcDbLine
 10
35.710886235812
 20
161.5316632201409
 30
0.0
 11
-88.28911376418799
 21
161.5316632201409
 31
0.0
  0
LINE
  5
393
330
4D
100
AcDbEntity
  8
1
  6
Continuous
 62
     3
100
AcDbLine
 10
-76.28911376418799
 20
241.5316632201409
 30
0.0
 11
-16.28911376418798
 21
241.5316632201409
 31
0.0
  0
LINE
  5
394
330
4D
100
AcDbEntity
  8
1
  6
Continuous
 62
     3
100
AcDbLine
 10
-76.28911376418799
 20
261.5316632201409
 30
0.0
 11
31.710886235812
 21
261.5316632201409
 31
0.0
  0
LINE
  5
395
330
4D
100
AcDbEntity
  8
1
  6
Continuous
 62
     3
100
AcDbLine
 10
-76.28911376418799
 20
249.5316632201409
 30
0.0
 11
-0.28911376418799
 21
249.5316632201409
 31
0.0
  0
LINE
  5
396
330
4D
100
AcDbEntity
  8
1
  6
Continuous
 62
     3
100
AcDbLine
 10
23.710886235812
 20
261.5316632201409
 30
0.0
 11
23.710886235812
 21
193.5316632201409
 31
0.0
  0
LINE
  5
397
330
4D
100
AcDbEntity
  8
1
  6
Continuous
 62
     3
100
AcDbLine
 10
15.710886235812
 20
261.5316632201409
 30
0.0
 11
15.710886235812
 21
193.5316632201409
 31
0.0
  0
LINE
  5
398
330
4D
100
AcDbEntity
  8
1
  6
Continuous
 62
     3
100
AcDbLine
 10
7.710886235812
 20
261.5316632201409
 30
0.0
 11
7.710886235812
 21
241.5316632201409
 31
0.0
  0
LINE
  5
399
330
4D
100
AcDbEntity
  8
1
  6
Continuous
 62
     3
100
AcDbLine
 10
-0.28911376418799
 20
261.5316632201409
 30
0.0
 11
-0.28911376418799
 21
249.5316632201409
 31
0.0
  0
LINE
  5
39A
330
4D
100
AcDbEntity
  8
1
  6
Continuous
 62
     3
100
AcDbLine
 10
-16.28911376418798
 20
261.5316632201409
 30
0.0
 11
-16.28911376418798
 21
241.5316632201409
 31
0.0
  0
LINE
  5
39B
330
4D
100
AcDbEntity
  8
1
  6
Continuous
 62
     3
100
AcDbLine
 10
-32.28911376418799
 20
261.5316632201409
 30
0.0
 11
-32.289113764188
 21
193.5316632201409
 31
0.0
  0
LINE
  5
39C
330
4D
100
AcDbEntity
  8
1
  6
Continuous
 62
     3
100
AcDbLine
 10
-40.28911376418799
 20
261.5316632201409
 30
0.0
 11
-40.28911376418799
 21
193.5316632201409
 31
0.0
  0
LINE
  5
39D
330
4D
100
AcDbEntity
  8
1
  6
Continuous
 62
     3
100
AcDbLine
 10
-48.28911376418799
 20
261.5316632201409
 30
0.0
 11
-48.28911376418799
 21
209.5316632201409
 31
0.0
  0
LINE
  5
39E
330
4D
100
AcDbEntity
  8
1
  6
Continuous
 62
     3
100
AcDbLine
 10
-56.28911376418799
 20
261.5316632201409
 30
0.0
 11
-56.28911376418799
 21
217.5316632201409
 31
0.0
  0
LINE
  5
39F
330
4D
100
AcDbEntity
  8
1
  6
Continuous
 62
     3
100
AcDbLine
 10
-72.28911376418799
 20
261.5316632201409
 30
0.0
 11
-72.28911376418799
 21
193.5316632201409
 31
0.0
  0
LINE
  5
3A0
330
4D
100
AcDbEntity
  8
1
  6
Continuous
 62
     3
100
AcDbLine
 10
-76.28911376418799
 20
257.5316632201409
 30
0.0
 11
-76.28911376418799
 21
193.5316632201409
 31
0.0
  0
LINE
  5
3A1
330
4D
100
AcDbEntity
  8
1
  6
Continuous
 62
     3
100
AcDbLine
 10
-76.28911376418799
 20
233.5316632201409
 30
0.0
 11
-24.28911376418797
 21
233.5316632201409
 31
0.0
  0
LINE
  5
3A2
330
4D
100
AcDbEntity
  8
1
  6
Continuous
 62
     3
100
AcDbLine
 10
-76.28911376418799
 20
209.5316632201409
 30
0.0
 11
-64.28911376418799
 21
209.5316632201409
 31
0.0
  0
LINE
  5
3A3
330
4D
100
AcDbEntity
  8
1
  6
Continuous
 62
     3
100
AcDbLine
 10
-76.28911376418799
 20
201.5316632201409
 30
0.0
 11
-56.28911376418799
 21
201.5316632201409
 31
0.0
  0
LINE
  5
3A4
330
4D
100
AcDbEntity
  8
1
  6
Continuous
 62
     3
100
AcDbLine
 10
-76.28911376418799
 20
193.5316632201409
 30
0.0
 11
31.710886235812
 21
193.5316632201409
 31
0.0
  0
LINE
  5
3A5
330
4D
100
AcDbEntity
  8
1
  6
Continuous
 62
     3
100
AcDbLine
 10
-56.28911376418799
 20
201.5316632201409
 30
0.0
 11
-56.28911376418799
 21
193.5316632201409
 31
0.0
  0
LINE
  5
3A6
330
4D
100
AcDbEntity
  8
1
  6
Continuous
 62
     3
100
AcDbLine
 10
-48.28911376418799
 20
209.5316632201409
 30
0.0
 11
31.710886235812
 21
209.5316632201409
 31
0.0
  0
LINE
  5
3A7
330
4D
100
AcDbEntity
  8
1
  6
Continuous
 62
     3
100
AcDbLine
 10
-24.28911376418797
 20
233.5316632201409
 30
0.0
 11
-0.28911376418799
 21
233.5316632201409
 31
0.0
  0
LINE
  5
3A8
330
4D
100
AcDbEntity
  8
1
  6
Continuous
 62
     3
100
AcDbLine
 10
-16.28911376418798
 20
241.5316632201409
 30
0.0
 11
-16.28911376418798
 21
209.5316632201409
 31
0.0
  0
LINE
  5
3A9
330
4D
100
AcDbEntity
  8
1
  6
Continuous
 62
     3
100
AcDbLine
 10
-56.28911376418799
 20
201.5316632201409
 30
0.0
 11
31.710886235812
 21
201.5316632201409
 31
0.0
  0
LINE
  5
3AA
330
4D
100
AcDbEntity
  8
1
  6
Continuous
 62
     3
100
AcDbLine
 10
-48.28911376418799
 20
209.5316632201409
 30
0.0
 11
-48.28911376418799
 21
193.5316632201409
 31
0.0
  0
LINE
  5
3AB
330
4D
100
AcDbEntity
  8
1
  6
Continuous
 62
     3
100
AcDbLine
 10
-64.28911376418799
 20
209.5316632201409
 30
0.0
 11
-64.28911376418799
 21
193.5316632201409
 31
0.0
  0
LINE
  5
3AC
330
4D
100
AcDbEntity
  8
1
  6
Continuous
 62
     3
100
AcDbLine
 10
-24.28911376418797
 20
233.5316632201409
 30
0.0
 11
-24.28911376418797
 21
211.8125849191192
 31
0.0
  0
LINE
  5
3AD
330
4D
100
AcDbEntity
  8
1
  6
Continuous
 62
     3
100
AcDbLine
 10
-8.28911376418798
 20
233.5316632201409
 30
0.0
 11
-8.28911376418798
 21
193.5316632201409
 31
0.0
  0
LINE
  5
3AE
330
4D
100
AcDbEntity
  8
1
  6
Continuous
 62
     3
100
AcDbLine
 10
-16.28911376418798
 20
241.5316632201409
 30
0.0
 11
-8.28911376418798
 21
241.5316632201409
 31
0.0
  0
LINE
  5
3AF
330
4D
100
AcDbEntity
  8
1
  6
Continuous
 62
     3
100
AcDbLine
 10
-16.28911376418798
 20
225.5316632201409
 30
0.0
 11
31.710886235812
 21
225.5316632201409
 31
0.0
  0
LINE
  5
3B0
330
4D
100
AcDbEntity
  8
1
  6
Continuous
 62
     3
100
AcDbLine
 10
-64.28911376418799
 20
261.5316632201409
 30
0.0
 11
-64.28911376418799
 21
209.5316632201409
 31
0.0
  0
LINE
  5
3B1
330
4D
100
AcDbEntity
  8
1
  6
Continuous
 62
     3
100
AcDbLine
 10
-76.28911376418799
 20
172.7316632201409
 30
0.0
 11
-72.28911376418799
 21
172.7316632201409
 31
0.0
  0
LINE
  5
3B2
330
4D
100
AcDbEntity
  8
1
  6
Continuous
 62
     3
100
AcDbLine
 10
-72.28911376418799
 20
173.9316632201409
 30
0.0
 11
-72.28911376418799
 21
172.7316632201409
 31
0.0
  0
LINE
  5
3B3
330
4D
100
AcDbEntity
  8
1
  6
Continuous
 62
     3
100
AcDbLine
 10
-45.22903440001156
 20
173.9316632201409
 30
0.0
 11
-45.22903440001156
 21
172.7316632201409
 31
0.0
  0
LINE
  5
3B4
330
4D
100
AcDbEntity
  8
1
  6
Continuous
 62
     3
100
AcDbLine
 10
-18.95578043085462
 20
173.9316632201409
 30
0.0
 11
-18.95578043085462
 21
172.7316632201409
 31
0.0
  0
LINE
  5
3B5
330
4D
100
AcDbEntity
  8
1
  6
Continuous
 62
     3
100
AcDbLine
 10
13.04421956914539
 20
173.9316632201409
 30
0.0
 11
13.04421956914539
 21
172.7316632201409
 31
0.0
  0
LINE
  5
3B6
330
4D
100
AcDbEntity
  8
1
  6
Continuous
 62
     3
100
AcDbLine
 10
-72.28911376418799
 20
172.7316632201409
 30
0.0
 11
31.710886235812
 21
172.7316632201409
 31
0.0
  0
LINE
  5
3B7
330
4D
100
AcDbEntity
  8
1
  6
Continuous
 62
     3
100
AcDbLine
 10
-8.28911376418798
 20
261.5316632201409
 30
0.0
 11
-8.28911376418798
 21
241.5316632201409
 31
0.0
  0
LINE
  5
3B8
330
4D
100
AcDbEntity
  8
1
  6
Continuous
 62
     3
100
AcDbLine
 10
-58.75907408209972
 20
173.9316632201409
 30
0.0
 11
-58.75907408209972
 21
172.7316632201409
 31
0.0
  0
LINE
  5
3B9
330
4D
100
AcDbEntity
  8
1
  6
Continuous
 62
     3
100
AcDbLine
 10
-62.75907408209972
 20
172.7316632201409
 30
0.0
 11
-58.75907408209972
 21
172.7316632201409
 31
0.0
  0
LINE
  5
3BA
330
4D
100
AcDbEntity
  8
1
  6
Continuous
 62
     3
100
AcDbLine
 10
-32.09240741543307
 20
173.9316632201409
 30
0.0
 11
-32.09240741543307
 21
172.7316632201409
 31
0.0
  0
LINE
  5
3BB
330
4D
100
AcDbEntity
  8
1
  6
Continuous
 62
     3
100
AcDbLine
 10
-2.95578043085462
 20
173.9316632201409
 30
0.0
 11
-2.95578043085462
 21
172.7316632201409
 31
0.0
  0
LINE
  5
3BC
330
4D
100
AcDbEntity
  8
1
  6
Continuous
 62
     3
100
AcDbLine
 10
29.0442195691454
 20
173.9316632201409
 30
0.0
 11
29.0442195691454
 21
172.7316632201409
 31
0.0
  0
LINE
  5
3BD
330
4D
100
AcDbEntity
  8
1
  6
Continuous
 62
     3
100
AcDbLine
 10
-76.28911376418799
 20
257.5316632201409
 30
0.0
 11
31.710886235812
 21
257.5316632201409
 31
0.0
  0
LINE
  5
3BE
330
4D
100
AcDbEntity
  8
1
  6
Continuous
 62
     3
100
AcDbLine
 10
-24.28911376418797
 20
211.8125849191192
 30
0.0
 11
-24.28911376418797
 21
193.5316632201409
 31
0.0
  0
LINE
  5
3BF
330
4D
100
AcDbEntity
  8
1
  6
Continuous
 62
     3
100
AcDbLine
 10
-16.28911376418798
 20
209.5316632201409
 30
0.0
 11
-16.28911376418798
 21
193.5316632201409
 31
0.0
  0
LINE
  5
3C0
330
4D
100
AcDbEntity
  8
1
  6
Continuous
 62
     3
100
AcDbLine
 10
31.710886235812
 20
201.5316632201409
 30
0.0
 11
31.710886235812
 21
193.5316632201409
 31
0.0
  0
LINE
  5
3C1
102
{ACAD_REACTORS
330
405
330
405
102
}
330
4D
100
AcDbEntity
  8
1
  6
Continuous
 62
     3
100
AcDbLine
 10
66.22164461807077
 20
215.2137877475001
 30
0.0
 11
63.22164461807076
 21
226.2137877475
 31
0.0
  0
LINE
  5
3C2
102
{ACAD_REACTORS
330
405
330
405
102
}
330
4D
100
AcDbEntity
  8
1
  6
Continuous
 62
     3
100
AcDbLine
 10
69.22164461807077
 20
226.2137877475
 30
0.0
 11
66.22164461807077
 21
215.2137877475001
 31
0.0
  0
LINE
  5
3C3
102
{ACAD_REACTORS
330
405
330
405
102
}
330
4D
100
AcDbEntity
  8
1
  6
Continuous
 62
     3
100
AcDbLine
 10
63.22164461807076
 20
226.2137877475
 30
0.0
 11
69.22164461807077
 21
226.2137877475
 31
0.0
  0
LINE
  5
3C4
330
4D
100
AcDbEntity
  8
1
  6
Continuous
 62
     3
100
AcDbLine
 10
31.710886235812
 20
201.5316632201409
 30
0.0
 11
31.710886235812
 21
261.5316632201409
 31
0.0
  0
LINE
  5
3C5
330
4D
100
AcDbEntity
  8
1
  6
Continuous
 62
     3
100
AcDbLine
 10
-76.28911376418799
 20
257.5316632201409
 30
0.0
 11
-76.28911376418799
 21
261.5316632201409
 31
0.0
  0
CIRCLE
  5
3C6
102
{ACAD_REACTORS
330
404
330
404
102
}
330
4D
100
AcDbEntity
  8
1
  6
Continuous
 62
     3
100
AcDbCircle
 10
66.22164461807077
 20
210.2531640217191
 30
0.0
 40
2.0
  0
SPLINE
  5
3C7
330
4D
100
AcDbEntity
  8
1
  6
Continuous
 62
     3
100
AcDbSpline
210
0.0
220
0.0
230
1.0
 70
     8
 71
     3
 72
    11
 73
     7
 74
     5
 42
0.0000000001
 43
0.0000000001
 44
0.00000001
 40
0.0
 40
0.0
 40
0.0
 40
0.0
 40
27.43360374455885
 40
54.60587198045012
 40
91.76931182508284
 40
128.703487788422
 40
128.703487788422
 40
128.703487788422
 40
128.703487788422
 10
-76.28911376418799
 20
257.5316632201408
 30
0.0
 10
-71.93487410411535
 20
249.3916198218874
 30
0.0
 10
-63.26787374703385
 20
233.1890759687672
 30
0.0
 10
-38.15877759230978
 20
214.1049698751423
 30
0.0
 10
-5.125998449854825
 20
204.9487465095885
 30
0.0
 10
19.45727887510294
 20
202.6683390629822
 30
0.0
 10
31.710886235812
 20
201.5316632201409
 30
0.0
 11
-76.28911376418799
 21
257.5316632201408
 31
0.0
 11
-61.64290403898163
 21
234.3348713061984
 31
0.0
 11
-40.28911376418798
 21
217.5316632201408
 31
0.0
 11
-4.9471495840108
 21
206.0396299373527
 31
0.0
 11
31.710886235812
 21
201.5316632201409
 31
0.0
  0
MTEXT
  5
3C9
330
4D
100
AcDbEntity
  8
1
 62
     4
100
AcDbMText
 10
-62.79175229752634
 20
210.4509924209589
 30
0.0
 40
1.4
 41
0.0
 71
     7
 72
     1
  1
Montage\Pohne\PT\U+00fcrstopper
  7
CONVERTER_13
 73
     1
 44
0.90036014405762
  0
MTEXT
  5
3CA
330
4D
100
AcDbEntity
  8
1
 62
     3
100
AcDbMText
 10
-83.20005565881931
 20
243.9450885221597
 30
0.0
 40
1.4
 41
0.0
 71
     7
 72
     1
  1
T\U+00fcrmasse (kg)
  7
CONVERTER_13
 11
6.123233995736766E-17
 21
1.0
 31
0.0
 73
     1
 44
1.02040816326531
  0
MTEXT
  5
3CB
330
4D
100
AcDbEntity
  8
1
 62
     4
100
AcDbMText
 10
-20.1760832010017
 20
187.4159990621646
 30
0.0
 40
1.4
 41
0.0
 71
     7
 72
     1
  1
\U+00d6ffnungsgeschwindigkeit (m/s)  (T\U+00fcrblattbreite 1m)
  7
CONVERTER_13
 73
     1
 44
1.02040816326531
  0
MTEXT
  5
3CC
330
4D
100
AcDbEntity
  8
1
 62
     4
100
AcDbMText
 10
-19.98829212855371
 20
177.0159990621646
 30
0.0
 40
1.4
 41
0.0
 71
     7
 72
     1
  1
Windgeschwindigkeit (km/h)     (T\U+00fcrblattbreite 1m)
  7
CONVERTER_13
 73
     1
 44
1.02040816326531
  0
MTEXT
  5
3CD
330
4D
100
AcDbEntity
  8
1
 62
     4
100
AcDbMText
 10
-20.0996052424107
 20
166.6159990621646
 30
0.0
 40
1.4
 41
0.0
 71
     7
 72
     1
  1
Windst\U+00e4rke (Bft)               (T\U+00fcrblattbreite 1m)
  7
CONVERTER_13
 73
     1
 44
1.02040816326531
  0
TEXT
  5
3CE
330
4D
100
AcDbEntity
  8
1
 62
     3
100
AcDbText
 10
-80.40910191424919
 20
200.8704314313206
 30
0.0
 40
1.4
  1
20
 41
0.9
  7
CONVERTER_13
100
AcDbText
  0
TEXT
  5
3CF
330
4D
100
AcDbEntity
  8
1
 62
     3
100
AcDbText
 10
-80.40910191424919
 20
208.8704314313206
 30
0.0
 40
1.4
  1
40
 41
0.9
  7
CONVERTER_13
100
AcDbText
  0
TEXT
  5
3D0
330
4D
100
AcDbEntity
  8
1
 62
     3
100
AcDbText
 10
-80.40910191424919
 20
216.8704314313206
 30
0.0
 40
1.4
  1
60
 41
0.9
  7
CONVERTER_13
100
AcDbText
  0
TEXT
  5
3D1
330
4D
100
AcDbEntity
  8
1
 62
     3
100
AcDbText
 10
-80.40910191424919
 20
224.8704314313206
 30
0.0
 40
1.4
  1
80
 41
0.9
  7
CONVERTER_13
100
AcDbText
  0
TEXT
  5
3D2
330
4D
100
AcDbEntity
  8
1
 62
     3
100
AcDbText
 10
-80.40910191424919
 20
232.8704314313206
 30
0.0
 40
1.4
  1
100
 41
0.9
  7
CONVERTER_13
100
AcDbText
  0
TEXT
  5
3D3
330
4D
100
AcDbEntity
  8
1
 62
     3
100
AcDbText
 10
-80.40910191424919
 20
240.8704314313206
 30
0.0
 40
1.4
  1
120
 41
0.9
  7
CONVERTER_13
100
AcDbText
  0
TEXT
  5
3D4
330
4D
100
AcDbEntity
  8
1
 62
     3
100
AcDbText
 10
-80.40910191424919
 20
248.8704314313206
 30
0.0
 40
1.4
  1
140
 41
0.9
  7
CONVERTER_13
100
AcDbText
  0
TEXT
  5
3D5
330
4D
100
AcDbEntity
  8
1
 62
     3
100
AcDbText
 10
-80.40910191424919
 20
256.8704314313206
 30
0.0
 40
1.4
  1
160
 41
0.9
  7
CONVERTER_13
100
AcDbText
  0
TEXT
  5
3D6
330
4D
100
AcDbEntity
  8
1
 62
     3
100
AcDbText
 10
-73.42291025373399
 20
190.0591354682409
 30
0.0
 40
1.4
  1
1,6
 41
0.9
  7
CONVERTER_13
100
AcDbText
  0
TEXT
  5
3D7
330
4D
100
AcDbEntity
  8
1
 62
     3
100
AcDbText
 10
-65.42291025373399
 20
190.0591354682409
 30
0.0
 40
1.4
  1
1,8
 41
0.9
  7
CONVERTER_13
100
AcDbText
  0
TEXT
  5
3D8
330
4D
100
AcDbEntity
  8
1
 62
     3
100
AcDbText
 10
-57.42291025373399
 20
190.0591354682409
 30
0.0
 40
1.4
  1
2,0
 41
0.9
  7
CONVERTER_13
100
AcDbText
  0
TEXT
  5
3D9
330
4D
100
AcDbEntity
  8
1
 62
     3
100
AcDbText
 10
-49.42291025373399
 20
190.0591354682409
 30
0.0
 40
1.4
  1
2,2
 41
0.9
  7
CONVERTER_13
100
AcDbText
  0
TEXT
  5
3DA
330
4D
100
AcDbEntity
  8
1
 62
     3
100
AcDbText
 10
-41.42291025373399
 20
190.0591354682409
 30
0.0
 40
1.4
  1
2,4
 41
0.9
  7
CONVERTER_13
100
AcDbText
  0
TEXT
  5
3DB
330
4D
100
AcDbEntity
  8
1
 62
     3
100
AcDbText
 10
-33.42291025373399
 20
190.0591354682409
 30
0.0
 40
1.4
  1
2,6
 41
0.9
  7
CONVERTER_13
100
AcDbText
  0
TEXT
  5
3DC
330
4D
100
AcDbEntity
  8
1
 62
     3
100
AcDbText
 10
-25.42291025373397
 20
190.0591354682409
 30
0.0
 40
1.4
  1
2,8
 41
0.9
  7
CONVERTER_13
100
AcDbText
  0
TEXT
  5
3DD
330
4D
100
AcDbEntity
  8
1
 62
     3
100
AcDbText
 10
-17.42291025373398
 20
190.0591354682409
 30
0.0
 40
1.4
  1
3,0
 41
0.9
  7
CONVERTER_13
100
AcDbText
  0
TEXT
  5
3DE
330
4D
100
AcDbEntity
  8
1
 62
     3
100
AcDbText
 10
-9.42291025373398
 20
190.0591354682409
 30
0.0
 40
1.4
  1
3,2
 41
0.9
  7
CONVERTER_13
100
AcDbText
  0
TEXT
  5
3DF
330
4D
100
AcDbEntity
  8
1
 62
     3
100
AcDbText
 10
-1.42291025373399
 20
190.0591354682409
 30
0.0
 40
1.4
  1
3,4
 41
0.9
  7
CONVERTER_13
100
AcDbText
  0
TEXT
  5
3E0
330
4D
100
AcDbEntity
  8
1
 62
     3
100
AcDbText
 10
6.57708974626603
 20
190.0591354682409
 30
0.0
 40
1.4
  1
3,6
 41
0.9
  7
CONVERTER_13
100
AcDbText
  0
TEXT
  5
3E1
330
4D
100
AcDbEntity
  8
1
 62
     3
100
AcDbText
 10
14.57708974626603
 20
190.0591354682409
 30
0.0
 40
1.4
  1
3,8
 41
0.9
  7
CONVERTER_13
100
AcDbText
  0
TEXT
  5
3E2
330
4D
100
AcDbEntity
  8
1
 62
     3
100
AcDbText
 10
22.57708974626603
 20
190.0591354682409
 30
0.0
 40
1.4
  1
4,0
 41
0.9
  7
CONVERTER_13
100
AcDbText
  0
TEXT
  5
3E3
330
4D
100
AcDbEntity
  8
1
 62
     3
100
AcDbText
 10
30.57708974626603
 20
190.0591354682409
 30
0.0
 40
1.4
  1
4,2
 41
0.9
  7
CONVERTER_13
100
AcDbText
  0
TEXT
  5
3E4
330
4D
100
AcDbEntity
  8
1
 62
     3
100
AcDbText
 10
30.57708974626603
 20
179.799135468241
 30
0.0
 40
1.4
  1
63
 41
0.9
  7
CONVERTER_13
100
AcDbText
  0
TEXT
  5
3E5
330
4D
100
AcDbEntity
  8
1
 62
     3
100
AcDbText
 10
22.57708974626603
 20
179.799135468241
 30
0.0
 40
1.4
  1
60
 41
0.9
  7
CONVERTER_13
100
AcDbText
  0
TEXT
  5
3E6
330
4D
100
AcDbEntity
  8
1
 62
     3
100
AcDbText
 10
14.57708974626603
 20
179.799135468241
 30
0.0
 40
1.4
  1
57
 41
0.9
  7
CONVERTER_13
100
AcDbText
  0
TEXT
  5
3E7
330
4D
100
AcDbEntity
  8
1
 62
     3
100
AcDbText
 10
6.57708974626603
 20
179.799135468241
 30
0.0
 40
1.4
  1
54
 41
0.9
  7
CONVERTER_13
100
AcDbText
  0
TEXT
  5
3E8
330
4D
100
AcDbEntity
  8
1
 62
     3
100
AcDbText
 10
-1.42291025373399
 20
179.799135468241
 30
0.0
 40
1.4
  1
51
 41
0.9
  7
CONVERTER_13
100
AcDbText
  0
TEXT
  5
3E9
330
4D
100
AcDbEntity
  8
1
 62
     3
100
AcDbText
 10
-9.42291025373398
 20
179.799135468241
 30
0.0
 40
1.4
  1
48
 41
0.9
  7
CONVERTER_13
100
AcDbText
  0
TEXT
  5
3EA
330
4D
100
AcDbEntity
  8
1
 62
     3
100
AcDbText
 10
-17.42291025373398
 20
179.799135468241
 30
0.0
 40
1.4
  1
45
 41
0.9
  7
CONVERTER_13
100
AcDbText
  0
TEXT
  5
3EB
330
4D
100
AcDbEntity
  8
1
 62
     3
100
AcDbText
 10
-25.42291025373397
 20
179.799135468241
 30
0.0
 40
1.4
  1
42
 41
0.9
  7
CONVERTER_13
100
AcDbText
  0
TEXT
  5
3EC
330
4D
100
AcDbEntity
  8
1
 62
     3
100
AcDbText
 10
-33.42291025373399
 20
179.799135468241
 30
0.0
 40
1.4
  1
39
 41
0.9
  7
CONVERTER_13
100
AcDbText
  0
TEXT
  5
3ED
330
4D
100
AcDbEntity
  8
1
 62
     3
100
AcDbText
 10
-41.42291025373399
 20
179.799135468241
 30
0.0
 40
1.4
  1
36
 41
0.9
  7
CONVERTER_13
100
AcDbText
  0
TEXT
  5
3EE
330
4D
100
AcDbEntity
  8
1
 62
     3
100
AcDbText
 10
-49.42291025373399
 20
179.799135468241
 30
0.0
 40
1.4
  1
33
 41
0.9
  7
CONVERTER_13
100
AcDbText
  0
TEXT
  5
3EF
330
4D
100
AcDbEntity
  8
1
 62
     3
100
AcDbText
 10
-57.42291025373399
 20
179.799135468241
 30
0.0
 40
1.4
  1
30
 41
0.9
  7
CONVERTER_13
100
AcDbText
  0
TEXT
  5
3F0
330
4D
100
AcDbEntity
  8
1
 62
     3
100
AcDbText
 10
-65.42291025373399
 20
179.799135468241
 30
0.0
 40
1.4
  1
27
 41
0.9
  7
CONVERTER_13
100
AcDbText
  0
TEXT
  5
3F1
330
4D
100
AcDbEntity
  8
1
 62
     3
100
AcDbText
 10
-73.42291025373399
 20
179.799135468241
 30
0.0
 40
1.4
  1
24
 41
0.9
  7
CONVERTER_13
100
AcDbText
  0
TEXT
  5
3F2
330
4D
100
AcDbEntity
  8
1
 62
     3
100
AcDbText
 10
-73.42291025373399
 20
169.5391354682409
 30
0.0
 40
1.4
  1
4
 41
0.9
  7
CONVERTER_13
100
AcDbText
  0
TEXT
  5
3F3
330
4D
100
AcDbEntity
  8
1
 62
     3
100
AcDbText
 10
-46.3628308895575
 20
169.5391354682409
 30
0.0
 40
1.4
  1
5
 41
0.9
  7
CONVERTER_13
100
AcDbText
  0
TEXT
  5
3F4
330
4D
100
AcDbEntity
  8
1
 62
     3
100
AcDbText
 10
-20.08957692040059
 20
169.5391354682409
 30
0.0
 40
1.4
  1
6
 41
0.9
  7
CONVERTER_13
100
AcDbText
  0
TEXT
  5
3F5
330
4D
100
AcDbEntity
  8
1
 62
     3
100
AcDbText
 10
11.91042307959943
 20
169.5391354682409
 30
0.0
 40
1.4
  1
7
 41
0.9
  7
CONVERTER_13
100
AcDbText
  0
TEXT
  5
3F6
330
4D
100
AcDbEntity
  8
1
 62
     3
100
AcDbText
 10
-59.89287057164567
 20
169.5391354682409
 30
0.0
 40
1.4
  1
4,5
 41
0.9
  7
CONVERTER_13
100
AcDbText
  0
TEXT
  5
3F7
330
4D
100
AcDbEntity
  8
1
 62
     3
100
AcDbText
 10
-33.22620390497907
 20
169.5391354682409
 30
0.0
 40
1.4
  1
5,5
 41
0.9
  7
CONVERTER_13
100
AcDbText
  0
TEXT
  5
3F8
330
4D
100
AcDbEntity
  8
1
 62
     3
100
AcDbText
 10
-4.08957692040059
 20
169.5391354682409
 30
0.0
 40
1.4
  1
6,5
 41
0.9
  7
CONVERTER_13
100
AcDbText
  0
TEXT
  5
3F9
330
4D
100
AcDbEntity
  8
1
 62
     3
100
AcDbText
 10
27.91042307959943
 20
169.5391354682409
 30
0.0
 40
1.4
  1
7,5
 41
0.9
  7
CONVERTER_13
100
AcDbText
  0
TEXT
  5
3FA
330
4D
100
AcDbEntity
  8
1
 62
     3
100
AcDbText
 10
-20.08987095454195
 20
185.0969127912061
 30
0.0
 40
1.4
  1
Opening speed (m/s)         (door leaf width 1m)
 41
0.9
  7
CONVERTER_13
100
AcDbText
  0
TEXT
  5
3FB
330
4D
100
AcDbEntity
  8
1
 62
     3
100
AcDbText
 10
-20.09184856323711
 20
174.8969127912061
 30
0.0
 40
1.4
  1
Wind speed (km/h)           (door leaf width 1m)
 41
0.9
  7
CONVERTER_13
100
AcDbText
  0
TEXT
  5
3FC
330
4D
100
AcDbEntity
  8
1
 62
     3
100
AcDbText
 10
-20.03516965331311
 20
164.2969127912061
 30
0.0
 40
1.4
  1
Windforce (Bft)               (door leaf width 1m)
 41
0.9
  7
CONVERTER_13
100
AcDbText
  0
MTEXT
  5
3FD
330
4D
100
AcDbEntity
  8
1
 62
     3
100
AcDbMText
 10
-7.1951252515003
 20
236.9612946729806
 30
0.0
 40
1.4
 41
0.0
 71
     7
 72
     1
  1
Assembly with \Pdoor stopper
  7
CONVERTER_13
 73
     1
 44
1.02040816326531
  0
MTEXT
  5
3FE
330
4D
100
AcDbEntity
  8
1
 62
     4
100
AcDbMText
 10
-7.19512525150038
 20
242.7212946729805
 30
0.0
 40
1.4
 41
0.0
 71
     7
 72
     1
  1
Montage mit \PT\U+00fcrstopper
  7
CONVERTER_13
 73
     1
 44
1.02040816326531
  0
MTEXT
  5
3FF
330
4D
100
AcDbEntity
  8
1
 62
     3
100
AcDbMText
 10
-62.79175229752634
 20
203.3959701510404
 30
0.0
 40
1.4
 41
0.0
 71
     7
 72
     1
  1
Assembly\Pwithout \Pdoor stopper
  7
CONVERTER_13
 73
     1
 44
0.90036014405762
  0
MTEXT
  5
400
330
4D
100
AcDbEntity
  8
1
 62
     4
100
AcDbMText
 10
76.51625871161085
 20
202.8990424515811
 30
0.0
 40
3.5
 41
0.0
 71
     7
 72
     1
  1
In bestimmten Anwendungsf\U+00e4llen mu\U+00df zus\U+00e4tzlich\Pein T\U+00fcrstopper angebracht werden.\P(siehe Diagramm)\PRichtwerte  bezogen auf 1m T\U+00fcrbreite und 2,2m T\U+00fcrh\U+00f6he\P 
  7
CONVERTER_15
 73
     1
 44
1.02040816326531
  0
MTEXT
  5
401
330
4D
100
AcDbEntity
  8
1
 62
     3
100
AcDbMText
 10
75.92754393466589
 20
194.0457587893072
 30
0.0
 40
2.5
 41
0.0
 71
     7
 72
     1
  1
In certain applications, an additional Door stopper must be installed\P(see diagram). \PRecommended value for door leaf width is 1m and for door leaf height is 2,2m.
  7
CONVERTER_15
 73
     1
 44
1.02040816326531
  0
MTEXT
  5
402
330
4D
100
AcDbEntity
  8
1
 62
     4
100
AcDbMText
 10
75.79382805715824
 20
162.1813750690608
 30
0.0
 40
3.5
 41
0.0
 71
     7
 72
     1
  1
Je nach T\U+00fcrsituation, (Band),\Pergeben sich folgende \U+00d6ffnungswinkel:\P- Beginn D\U+00e4mpfung: 100-102\U+00b0\P- Ende   D\U+00e4mpfung: 113-116\U+00b0
  7
CONVERTER_15
 73
     1
 44
1.02040816326531
  0
MTEXT
  5
403
330
4D
100
AcDbEntity
  8
1
 62
     3
100
AcDbMText
 10
75.92754393466589
 20
145.5997911764122
 30
0.0
 40
2.5
 41
0.0
 71
     7
 72
     1
  1
depending on door/hinge arise following opening angles:\P- beginning of damping : 100\U+00b0 - 102\U+00b0\P- End of damping:        113\U+00b0 - 116\U+00b0  
  7
CONVERTER_15
 73
     1
 44
1.02040816326531
  0
HATCH
  5
404
330
4D
100
AcDbEntity
  8
1
  6
Continuous
 62
     3
100
AcDbHatch
 10
0.0
 20
0.0
 30
0.0
210
0.0
220
0.0
230
1.0
  2
_USER
 70
     0
 71
     1
 91
        1
 92
        1
 93
        1
 72
     2
 10
66.22164461807077
 20
210.2531640217191
 40
2.0
 50
0.0
 51
360.0
 73
     1
 97
        1
330
3C6
 75
     1
 76
     0
 52
45.0
 41
0.18
 77
     0
 78
     1
 53
45.0
 43
0.0
 44
0.0
 45
-0.1272792206135785
 46
0.1272792206135785
 79
     0
 98
        1
 10
0.0
 20
0.0
  0
HATCH
  5
405
330
4D
100
AcDbEntity
  8
1
  6
Continuous
 62
     3
100
AcDbHatch
 10
0.0
 20
0.0
 30
0.0
210
0.0
220
0.0
230
1.0
  2
_USER
 70
     0
 71
     1
 91
        1
 92
        1
 93
        3
 72
     1
 10
69.22164461807077
 20
226.2137877475
 11
66.22164461807077
 21
215.2137877475001
 72
     1
 10
66.22164461807077
 20
215.2137877475001
 11
63.22164461807076
 21
226.2137877475
 72
     1
 10
63.22164461807076
 20
226.2137877475
 11
69.22164461807077
 21
226.2137877475
 97
        3
330
3C2
330
3C1
330
3C3
 75
     1
 76
     0
 52
45.0
 41
0.18
 77
     0
 78
     1
 53
45.0
 43
0.0
 44
0.0
 45
-0.1272792206135785
 46
0.1272792206135785
 79
     0
 98
        1
 10
0.0
 20
0.0
  0
HATCH
  5
406
330
4D
100
AcDbEntity
  8
1
  6
Continuous
 62
     7
100
AcDbHatch
 10
0.0
 20
0.0
 30
0.0
210
0.0
220
0.0
230
1.0
  2
_USER
 70
     0
 71
     0
 91
        2
 92
        1
 93
        4
 72
     1
 10
31.710886235812
 20
193.5316632201409
 11
-76.28911376418799
 21
193.5316632201409
 72
     1
 10
-76.28911376418799
 20
193.5316632201409
 11
-76.28911376418799
 21
257.5316632201409
 72
     4
 94
        3
 73
     0
 74
     0
 95
       11
 96
        7
 40
0.0
 40
0.0
 40
0.0
 40
0.0
 40
27.43360374455885
 40
54.60587198045012
 40
91.76931182508284
 40
128.703487788422
 40
128.703487788422
 40
128.703487788422
 40
128.703487788422
 10
-76.28911376418799
 20
257.5316632201408
 10
-71.93487410411535
 20
249.3916198218874
 10
-63.26787374703385
 20
233.1890759687672
 10
-38.15877759230978
 20
214.1049698751423
 10
-5.125998449854825
 20
204.9487465095885
 10
19.45727887510294
 20
202.6683390629822
 10
31.710886235812
 20
201.5316632201409
 72
     1
 10
31.710886235812
 20
201.5316632201409
 11
31.710886235812
 21
193.5316632201409
 97
        0
 92
       16
 93
        4
 72
     1
 10
-63.14175229752634
 20
202.4050327247289
 11
-49.14175229752635
 21
202.4050327247289
 72
     1
 10
-49.14175229752635
 20
202.4050327247289
 11
-49.14175229752635
 21
216.8250327247289
 72
     1
 10
-49.14175229752635
 20
216.8250327247289
 11
-63.14175229752634
 21
216.8250327247289
 72
     1
 10
-63.14175229752634
 20
216.8250327247289
 11
-63.14175229752634
 21
202.4050327247289
 97
        0
 75
     1
 76
     0
 52
90.00000000000003
 41
2.0
 77
     0
 78
     1
 53
90.00000000000003
 43
0.0
 44
0.0
 45
-2.0
 46
-0.0000000000000008
 79
     0
 98
        1
 10
0.0
 20
0.0
  0
ENDBLK
  5
4F
330
4D
100
AcDbEntity
  8
0
100
AcDbBlockEnd
  0
BLOCK
  5
51
330
50
100
AcDbEntity
  8
0
100
AcDbBlockBegin
  2
Drehlager
 70
     0
 71
     0
 10
-88.0786818220176
 20
367.6919202217657
 30
0.0
  3
Drehlager
  1

  0
LINE
  5
407
330
50
100
AcDbEntity
  8
1
  6
Continuous
 62
     4
100
AcDbLine
 10
-63.78803434815794
 20
417.9428918944655
 30
0.0
 11
-63.91216545703441
 21
418.4248130789682
 31
0.0
  0
LINE
  5
408
330
50
100
AcDbEntity
  8
1
  6
Continuous
 62
     4
100
AcDbLine
 10
-63.88842780719789
 20
476.9426789259902
 30
0.0
 11
-65.34336694857768
 21
477.3783474599437
 31
0.0
  0
LINE
  5
409
330
50
100
AcDbEntity
  8
1
  6
Continuous
 62
     4
100
AcDbLine
 10
-65.20235992919869
 20
477.8580592575939
 30
0.0
 11
-63.7449994978505
 21
477.4216656899801
 31
0.0
  0
LINE
  5
40A
330
50
100
AcDbEntity
  8
1
  6
Continuous
 62
     4
100
AcDbLine
 10
-63.7449994978505
 20
477.4216656899801
 30
0.0
 11
-63.88842780719789
 21
476.9426789259902
 31
0.0
  0
LINE
  5
40B
330
50
100
AcDbEntity
  8
1
  6
DASH_CENTER
 62
     3
100
AcDbLine
 10
-15.60800980159658
 20
469.6919202217657
 30
0.0
 11
-69.1786818220176
 21
469.6919202217657
 31
0.0
  0
LINE
  5
40C
330
50
100
AcDbEntity
  8
0
  6
Continuous
 62
     1
100
AcDbLine
 10
-32.80976529411473
 20
450.5919202217658
 30
0.0
 11
-32.80976529411473
 21
444.7919202217657
 31
0.0
  0
LINE
  5
40D
330
50
100
AcDbEntity
  8
0
  6
Continuous
 62
     1
100
AcDbLine
 10
-32.80976529411473
 20
466.7919202217657
 30
0.0
 11
-32.80976529411473
 21
450.5919202217658
 31
0.0
  0
LINE
  5
40E
330
50
100
AcDbEntity
  8
0
  6
Continuous
 62
     1
100
AcDbLine
 10
-63.31112369935735
 20
476.705567768168
 30
0.0
 11
-62.95526066898137
 21
477.6919202217667
 31
0.0
  0
LINE
  5
40F
330
50
100
AcDbEntity
  8
0
  6
Continuous
 62
     1
100
AcDbLine
 10
-64.20078382318624
 20
477.0293775718554
 30
0.0
 11
-63.31112369935735
 21
476.705567768168
 31
0.0
  0
LINE
  5
410
330
50
100
AcDbEntity
  8
0
  6
Continuous
 62
     1
100
AcDbLine
 10
-32.80976529411473
 20
477.6919202217661
 30
0.0
 11
-62.95526066898137
 21
477.6919202217667
 31
0.0
  0
LINE
  5
411
330
50
100
AcDbEntity
  8
0
  6
Continuous
 62
     1
100
AcDbLine
 10
-32.80976529411473
 20
466.7919202217657
 30
0.0
 11
-32.80976529411473
 21
472.5919202217658
 31
0.0
  0
LINE
  5
412
330
50
100
AcDbEntity
  8
0
  6
Continuous
 62
     1
100
AcDbLine
 10
-32.80976529411473
 20
477.6919202217661
 30
0.0
 11
-32.80976529411473
 21
472.5919202217658
 31
0.0
  0
LINE
  5
413
330
50
100
AcDbEntity
  8
0
  6
Continuous
 62
     1
100
AcDbLine
 10
-63.31112369935826
 20
418.6782726753621
 30
0.0
 11
-64.20078382318579
 21
418.3544628716749
 31
0.0
  0
LINE
  5
414
330
50
100
AcDbEntity
  8
0
  6
Continuous
 62
     1
100
AcDbLine
 10
-32.80976529411473
 20
422.7919202217657
 30
0.0
 11
-32.80976529411473
 21
417.6919202217653
 31
0.0
  0
LINE
  5
415
330
50
100
AcDbEntity
  8
0
  6
Continuous
 62
     1
100
AcDbLine
 10
-58.30976529411478
 20
417.6919202217653
 30
0.0
 11
-62.95526066898228
 21
417.6919202217653
 31
0.0
  0
LINE
  5
416
330
50
100
AcDbEntity
  8
0
  6
Continuous
 62
     1
100
AcDbLine
 10
-62.95526066898228
 20
417.6919202217653
 30
0.0
 11
-63.31112369935826
 21
418.6782726753621
 31
0.0
  0
LINE
  5
417
330
50
100
AcDbEntity
  8
0
  6
Continuous
 62
     1
100
AcDbLine
 10
-32.80976529411473
 20
428.5919202217658
 30
0.0
 11
-32.80976529411473
 21
422.7919202217657
 31
0.0
  0
LINE
  5
418
330
50
100
AcDbEntity
  8
0
  6
Continuous
 62
     1
100
AcDbLine
 10
-32.80976529411473
 20
444.7919202217657
 30
0.0
 11
-32.80976529411473
 21
428.5919202217658
 31
0.0
  0
LINE
  5
419
330
50
100
AcDbEntity
  8
1
  6
DOT_CENTER
 62
     3
100
AcDbLine
 10
-47.80976529411473
 20
399.4240748374758
 30
0.0
 11
-47.80976529411473
 21
485.020224363586
 31
0.0
  0
LINE
  5
41A
330
50
100
AcDbEntity
  8
1
  6
DASH_CENTER
 62
     3
100
AcDbLine
 10
-15.60800980159658
 20
425.6919202217657
 30
0.0
 11
-69.1786818220176
 21
425.6919202217657
 31
0.0
  0
LINE
  5
41B
330
50
100
AcDbEntity
  8
1
  6
Continuous
 62
     4
100
AcDbLine
 10
-65.3393401491471
 20
418.0572077883329
 30
0.0
 11
-63.91216545703441
 21
418.4248130789682
 31
0.0
  0
LINE
  5
41C
330
50
100
AcDbEntity
  8
1
  6
Continuous
 62
     4
100
AcDbLine
 10
-63.78803434815794
 20
417.9428918944655
 30
0.0
 11
-65.1683300774843
 21
417.5873614779387
 31
0.0
  0
LINE
  5
41D
330
50
100
AcDbEntity
  8
1
  6
Continuous
 62
     1
100
AcDbLine
 10
-36.80976529411474
 20
408.9560708369036
 30
0.0
 11
-58.80976529411451
 21
408.9560708369036
 31
0.0
  0
LINE
  5
41E
330
50
100
AcDbEntity
  8
1
  6
Continuous
 62
     1
100
AcDbLine
 10
-37.30976529411474
 20
417.6919202217653
 30
0.0
 11
-37.30976529411474
 21
416.491969221766
 31
0.0
  0
LINE
  5
41F
330
50
100
AcDbEntity
  8
1
  6
Continuous
 62
     1
100
AcDbLine
 10
-37.30976529411474
 20
416.491969221766
 30
0.0
 11
-36.80976529411474
 21
415.991969221766
 31
0.0
  0
LINE
  5
420
330
50
100
AcDbEntity
  8
1
  6
Continuous
 62
     1
100
AcDbLine
 10
-36.80976529411474
 20
415.991969221766
 30
0.0
 11
-36.80976529411474
 21
408.9560708369036
 31
0.0
  0
LINE
  5
421
330
50
100
AcDbEntity
  8
1
  6
Continuous
 62
     1
100
AcDbLine
 10
-58.80976529411451
 20
408.9560708369036
 30
0.0
 11
-58.80976529411451
 21
415.991969221766
 31
0.0
  0
LINE
  5
422
330
50
100
AcDbEntity
  8
1
  6
Continuous
 62
     1
100
AcDbLine
 10
-58.80976529411451
 20
415.991969221766
 30
0.0
 11
-58.30976529411451
 21
416.491969221766
 31
0.0
  0
LINE
  5
423
330
50
100
AcDbEntity
  8
1
  6
Continuous
 62
     4
100
AcDbLine
 10
-58.30976529411451
 20
416.491969221766
 30
0.0
 11
-37.30976529411474
 21
416.491969221766
 31
0.0
  0
LINE
  5
424
330
50
100
AcDbEntity
  8
1
  6
Continuous
 62
     4
100
AcDbLine
 10
-36.80976529411474
 20
415.991969221766
 30
0.0
 11
-58.80976529411451
 21
415.991969221766
 31
0.0
  0
LINE
  5
425
330
50
100
AcDbEntity
  8
1
  6
Continuous
 62
     1
100
AcDbLine
 10
-58.30976529411451
 20
416.491969221766
 30
0.0
 11
-58.30976529411478
 21
417.6919202217653
 31
0.0
  0
LINE
  5
426
330
50
100
AcDbEntity
  8
1
  6
Continuous
 62
     1
100
AcDbLine
 10
-57.38711556330455
 20
406.491969221766
 30
0.0
 11
-58.80976529411451
 21
408.9560708369036
 31
0.0
  0
LINE
  5
427
330
50
100
AcDbEntity
  8
1
  6
Continuous
 62
     1
100
AcDbLine
 10
-36.80976529411474
 20
408.9560708369036
 30
0.0
 11
-38.23241502492495
 21
406.491969221766
 31
0.0
  0
LINE
  5
428
330
50
100
AcDbEntity
  8
0
  6
DASH_CENTER
 62
     3
100
AcDbLine
 10
-48.30976529411473
 20
393.0610612217657
 30
0.0
 11
-48.30976529411473
 21
406.9919692217661
 31
0.0
  0
LINE
  5
429
330
50
100
AcDbEntity
  8
1
  6
Continuous
 62
     1
100
AcDbLine
 10
-37.30976529411473
 20
405.9919692217661
 30
0.0
 11
-58.80976529411471
 21
405.9919692217661
 31
0.0
  0
LINE
  5
42A
330
50
100
AcDbEntity
  8
1
  6
Continuous
 62
     1
100
AcDbLine
 10
-58.80976529411471
 20
400.9919692217658
 30
0.0
 11
-37.30976529411473
 21
400.9919692217661
 31
0.0
  0
LINE
  5
42B
330
50
100
AcDbEntity
  8
1
  6
Continuous
 62
     1
100
AcDbLine
 10
-51.80976529411483
 20
405.9919692217661
 30
0.0
 11
-51.80976529411483
 21
400.9919692217658
 31
0.0
  0
LINE
  5
42C
330
50
100
AcDbEntity
  8
1
  6
Continuous
 62
     1
100
AcDbLine
 10
-37.30976529411473
 20
405.9919692217661
 30
0.0
 11
-37.30976529411473
 21
400.9919692217661
 31
0.0
  0
LINE
  5
42D
330
50
100
AcDbEntity
  8
1
  6
Continuous
 62
     1
100
AcDbLine
 10
-58.80976529411471
 20
405.9919692217661
 30
0.0
 11
-58.80976529411471
 21
400.9919692217658
 31
0.0
  0
LINE
  5
42E
330
50
100
AcDbEntity
  8
0
  6
Continuous
 62
     1
100
AcDbLine
 10
-37.30976529411474
 20
417.6919202217653
 30
0.0
 11
-58.30976529411478
 21
417.6919202217653
 31
0.0
  0
LINE
  5
42F
330
50
100
AcDbEntity
  8
0
  6
Continuous
 62
     1
100
AcDbLine
 10
-32.80976529411473
 20
417.6919202217653
 30
0.0
 11
-37.30976529411474
 21
417.6919202217653
 31
0.0
  0
LINE
  5
430
330
50
100
AcDbEntity
  8
1
  6
DASH_CENTER
 62
     3
100
AcDbLine
 10
-15.60800980159658
 20
447.6919202217657
 30
0.0
 11
-69.1786818220176
 21
447.6919202217657
 31
0.0
  0
LINE
  5
431
330
50
100
AcDbEntity
  8
1
  6
Continuous
 62
     1
100
AcDbLine
 10
-63.59932243213314
 20
397.6919202217657
 30
0.0
 11
-56.30976529411473
 21
397.6919202217657
 31
0.0
  0
LINE
  5
432
330
50
100
AcDbEntity
  8
1
  6
Continuous
 62
     1
100
AcDbLine
 10
-56.30976529411473
 20
400.8919202217658
 30
0.0
 11
-56.30976529411473
 21
397.6919202217657
 31
0.0
  0
LINE
  5
433
330
50
100
AcDbEntity
  8
1
  6
Continuous
 62
     1
100
AcDbLine
 10
-40.30976529411473
 20
400.8919202217658
 30
0.0
 11
-40.30976529411473
 21
397.6919202217657
 31
0.0
  0
LINE
  5
434
330
50
100
AcDbEntity
  8
1
  6
Continuous
 62
     1
100
AcDbLine
 10
-56.30976529411473
 20
397.6919202217657
 30
0.0
 11
-40.30976529411473
 21
397.6919202217657
 31
0.0
  0
LINE
  5
435
330
50
100
AcDbEntity
  8
1
  6
Continuous
 62
     1
100
AcDbLine
 10
-38.80976529411473
 20
397.6919202217657
 30
0.0
 11
-32.80976529411473
 21
397.6919202217657
 31
0.0
  0
LINE
  5
436
330
50
100
AcDbEntity
  8
1
  6
Continuous
 62
     1
100
AcDbLine
 10
-40.30976529411473
 20
397.6919202217657
 30
0.0
 11
-38.80976529411473
 21
397.6919202217657
 31
0.0
  0
LINE
  5
437
330
50
100
AcDbEntity
  8
1
  6
LONG_DASHED
 62
     3
100
AcDbLine
 10
-38.80976529411473
 20
397.6919202217657
 30
0.0
 11
-38.80976529411473
 21
395.6919202217657
 31
0.0
  0
LINE
  5
438
330
50
100
AcDbEntity
  8
1
  6
LONG_DASHED
 62
     3
100
AcDbLine
 10
-57.80976529411474
 20
379.2919202217656
 30
0.0
 11
-57.80976529411474
 21
376.8919202217658
 31
0.0
  0
LINE
  5
439
330
50
100
AcDbEntity
  8
1
  6
LONG_DASHED
 62
     3
100
AcDbLine
 10
-60.95976529411475
 20
371.1919202217657
 30
0.0
 11
-60.95976529411475
 21
376.8919202217658
 31
0.0
  0
LINE
  5
43A
330
50
100
AcDbEntity
  8
1
  6
LONG_DASHED
 62
     3
100
AcDbLine
 10
-60.95976529411475
 20
395.6919202217657
 30
0.0
 11
-57.80976529411474
 21
395.6919202217657
 31
0.0
  0
LINE
  5
43B
330
50
100
AcDbEntity
  8
1
  6
LONG_DASHED
 62
     3
100
AcDbLine
 10
-60.95976529411475
 20
379.2919202217656
 30
0.0
 11
-57.80976529411474
 21
379.2919202217656
 31
0.0
  0
LINE
  5
43C
330
50
100
AcDbEntity
  8
1
  6
LONG_DASHED
 62
     3
100
AcDbLine
 10
-60.95976529411475
 20
376.8919202217658
 30
0.0
 11
-57.80976529411474
 21
376.8919202217658
 31
0.0
  0
LINE
  5
43D
330
50
100
AcDbEntity
  8
1
  6
Continuous
 62
     3
100
AcDbLine
 10
-57.80976529411474
 20
395.6919202217657
 30
0.0
 11
-57.80976529411474
 21
397.6919202217657
 31
0.0
  0
LINE
  5
43E
330
50
100
AcDbEntity
  8
1
  6
LONG_DASHED
 62
     3
100
AcDbLine
 10
-60.95976529411475
 20
379.2919202217656
 30
0.0
 11
-60.95976529411475
 21
395.6919202217657
 31
0.0
  0
LINE
  5
43F
330
50
100
AcDbEntity
  8
1
  6
LONG_DASHED
 62
     3
100
AcDbLine
 10
-48.30976529411473
 20
371.1919202217657
 30
0.0
 11
-35.65976529411472
 21
371.1919202217657
 31
0.0
  0
LINE
  5
440
330
50
100
AcDbEntity
  8
1
  6
Continuous
 62
     1
100
AcDbLine
 10
-63.59932243213314
 20
367.6919202217657
 30
0.0
 11
-32.80976529411473
 21
367.6919202217657
 31
0.0
  0
LINE
  5
441
330
50
100
AcDbEntity
  8
1
  6
LONG_DASHED
 62
     3
100
AcDbLine
 10
-60.95976529411475
 20
371.1919202217657
 30
0.0
 11
-48.30976529411473
 21
371.1919202217657
 31
0.0
  0
LINE
  5
442
330
50
100
AcDbEntity
  8
1
  6
Continuous
 62
     1
100
AcDbLine
 10
-40.30976529411473
 20
400.8919202217658
 30
0.0
 11
-56.30976529411473
 21
400.8919202217658
 31
0.0
  0
LINE
  5
443
330
50
100
AcDbEntity
  8
1
  6
DOT_CENTER
 62
     3
100
AcDbLine
 10
-48.30976529411473
 20
403.452309864401
 30
0.0
 11
-48.30976529411473
 21
394.9629045800489
 31
0.0
  0
LINE
  5
444
330
50
100
AcDbEntity
  8
1
  6
LONG_DASHED
 62
     3
100
AcDbLine
 10
-38.80976529411473
 20
395.6919202217657
 30
0.0
 11
-35.65976529411472
 21
395.6919202217657
 31
0.0
  0
LINE
  5
445
330
50
100
AcDbEntity
  8
1
  6
LONG_DASHED
 62
     3
100
AcDbLine
 10
-35.65976529411472
 20
395.6919202217657
 30
0.0
 11
-35.65976529411472
 21
379.2919202217656
 31
0.0
  0
LINE
  5
446
330
50
100
AcDbEntity
  8
1
  6
LONG_DASHED
 62
     3
100
AcDbLine
 10
-38.80976529411473
 20
379.2919202217656
 30
0.0
 11
-35.65976529411472
 21
379.2919202217656
 31
0.0
  0
LINE
  5
447
330
50
100
AcDbEntity
  8
1
  6
LONG_DASHED
 62
     3
100
AcDbLine
 10
-38.80976529411473
 20
376.8919202217658
 30
0.0
 11
-38.80976529411473
 21
379.2919202217656
 31
0.0
  0
LINE
  5
448
330
50
100
AcDbEntity
  8
1
  6
LONG_DASHED
 62
     3
100
AcDbLine
 10
-38.80976529411473
 20
376.8919202217658
 30
0.0
 11
-35.65976529411472
 21
376.8919202217658
 31
0.0
  0
LINE
  5
449
330
50
100
AcDbEntity
  8
1
  6
LONG_DASHED
 62
     3
100
AcDbLine
 10
-35.65976529411472
 20
376.8919202217658
 30
0.0
 11
-35.65976529411472
 21
371.1919202217657
 31
0.0
  0
LINE
  5
44A
330
50
100
AcDbEntity
  8
1
  6
Continuous
 62
     1
100
AcDbLine
 10
-32.80976529411473
 20
367.6919202217657
 30
0.0
 11
-32.80976529411473
 21
397.6919202217657
 31
0.0
  0
LINE
  5
44B
330
50
100
AcDbEntity
  8
0
  6
Continuous
 62
     3
100
AcDbLine
 10
-27.30976529411473
 20
385.8921152217651
 30
0.0
 11
-28.30976529411473
 21
385.8921152217651
 31
0.0
  0
LINE
  5
44C
330
50
100
AcDbEntity
  8
0
  6
DASH_CENTER
 62
     3
100
AcDbLine
 10
-40.10969229411475
 20
387.6919202217657
 30
0.0
 11
-27.25947229411359
 21
387.6919202217657
 31
0.0
  0
LINE
  5
44D
330
50
100
AcDbEntity
  8
0
  6
Continuous
 62
     3
100
AcDbLine
 10
-27.30976529411473
 20
389.4919682217649
 30
0.0
 11
-28.30976529411473
 21
389.4919682217652
 31
0.0
  0
LINE
  5
44E
330
50
100
AcDbEntity
  8
0
  6
Continuous
 62
     1
100
AcDbLine
 10
-27.30976529411473
 20
385.1919202217634
 30
0.0
 11
-27.30976529411473
 21
390.1919202217657
 31
0.0
  0
LINE
  5
44F
330
50
100
AcDbEntity
  8
0
  6
Continuous
 62
     1
100
AcDbLine
 10
-32.80976529411473
 20
428.1919202217657
 30
0.0
 11
-18.80976529411473
 21
428.1919202217667
 31
0.0
  0
LINE
  5
450
330
50
100
AcDbEntity
  8
0
  6
Continuous
 62
     3
100
AcDbLine
 10
-32.80976529411474
 20
427.4917252217664
 30
0.0
 11
-18.80976529411473
 21
427.4917252217653
 31
0.0
  0
LINE
  5
451
330
50
100
AcDbEntity
  8
0
  6
Continuous
 62
     1
100
AcDbLine
 10
-18.80976529411473
 20
428.1919202217667
 30
0.0
 11
-18.80976529411473
 21
423.1919202217667
 31
0.0
  0
LINE
  5
452
330
50
100
AcDbEntity
  8
0
  6
Continuous
 62
     3
100
AcDbLine
 10
-32.80976529411474
 20
423.8918722217657
 30
0.0
 11
-18.80976529411473
 21
423.8918722217657
 31
0.0
  0
LINE
  5
453
330
50
100
AcDbEntity
  8
0
  6
Continuous
 62
     1
100
AcDbLine
 10
-32.80976529411474
 20
423.1919202217657
 30
0.0
 11
-18.80976529411473
 21
423.1919202217667
 31
0.0
  0
LINE
  5
454
330
50
100
AcDbEntity
  8
0
  6
Continuous
 62
     1
100
AcDbLine
 10
-18.80976529411473
 20
472.1919202217657
 30
0.0
 11
-18.80976529411473
 21
467.1919202217657
 31
0.0
  0
LINE
  5
455
330
50
100
AcDbEntity
  8
0
  6
Continuous
 62
     1
100
AcDbLine
 10
-32.80976529411473
 20
472.1919202217657
 30
0.0
 11
-18.80976529411473
 21
472.1919202217657
 31
0.0
  0
LINE
  5
456
330
50
100
AcDbEntity
  8
0
  6
Continuous
 62
     3
100
AcDbLine
 10
-32.80976529411473
 20
471.4917252217664
 30
0.0
 11
-18.80976529411473
 21
471.4917252217664
 31
0.0
  0
LINE
  5
457
330
50
100
AcDbEntity
  8
0
  6
Continuous
 62
     3
100
AcDbLine
 10
-32.80976529411473
 20
467.8918722217657
 30
0.0
 11
-18.80976529411473
 21
467.8918722217657
 31
0.0
  0
LINE
  5
458
330
50
100
AcDbEntity
  8
0
  6
Continuous
 62
     1
100
AcDbLine
 10
-32.80976529411473
 20
467.1919202217657
 30
0.0
 11
-18.80976529411473
 21
467.1919202217657
 31
0.0
  0
LINE
  5
459
330
50
100
AcDbEntity
  8
0
  6
Continuous
 62
     1
100
AcDbLine
 10
-27.30976529411473
 20
390.1919202217657
 30
0.0
 11
-32.80976529411473
 21
390.1919202217657
 31
0.0
  0
LINE
  5
45A
330
50
100
AcDbEntity
  8
0
  6
Continuous
 62
     3
100
AcDbLine
 10
-28.30976529411473
 20
389.4919682217652
 30
0.0
 11
-30.30976529411473
 21
389.4919682217657
 31
0.0
  0
LINE
  5
45B
330
50
100
AcDbEntity
  8
0
  6
Continuous
 62
     3
100
AcDbLine
 10
-30.30976529411473
 20
389.4919682217657
 30
0.0
 11
-32.80976529411473
 21
389.4919682217656
 31
0.0
  0
LINE
  5
45C
330
50
100
AcDbEntity
  8
0
  6
Continuous
 62
     3
100
AcDbLine
 10
-30.30976529411473
 20
385.8921152217651
 30
0.0
 11
-32.80976529411473
 21
385.8921152217652
 31
0.0
  0
LINE
  5
45D
330
50
100
AcDbEntity
  8
0
  6
Continuous
 62
     3
100
AcDbLine
 10
-28.30976529411473
 20
385.8921152217651
 30
0.0
 11
-30.30976529411473
 21
385.8921152217651
 31
0.0
  0
LINE
  5
45E
330
50
100
AcDbEntity
  8
0
  6
Continuous
 62
     1
100
AcDbLine
 10
-27.30976529411473
 20
385.1919202217634
 30
0.0
 11
-32.80976529411473
 21
385.1919202217659
 31
0.0
  0
ARC
  5
45F
330
50
100
AcDbEntity
  8
1
  6
Continuous
 62
     4
100
AcDbCircle
 10
86.79299932780137
 20
447.7346767946295
 30
0.0
 40
155.5000028339207
100
AcDbArc
 50
168.974015276193
 51
-168.961594823731
  0
ARC
  5
460
330
50
100
AcDbEntity
  8
0
  6
Continuous
 62
     1
100
AcDbCircle
 10
112.1902347058854
 20
447.6919202217603
 30
0.0
 40
179.9999999999994
100
AcDbArc
 50
-174.644599386949
 51
-171.3086774459702
  0
ARC
  5
461
330
50
100
AcDbEntity
  8
0
  6
Continuous
 62
     1
100
AcDbCircle
 10
112.1902347058846
 20
447.691920221769
 30
0.0
 40
179.9999999999994
100
AcDbArc
 50
-178.344558274284
 51
-174.6445993869462
  0
ARC
  5
462
330
50
100
AcDbEntity
  8
0
  6
Continuous
 62
     1
100
AcDbCircle
 10
-64.54280396651129
 20
476.0896849510679
 30
0.0
 40
1.000000000001252
100
AcDbArc
 50
70.0000000000642
 51
170.8716436586298
  0
ARC
  5
463
330
50
100
AcDbEntity
  8
0
  6
Continuous
 62
     1
100
AcDbCircle
 10
112.1902347058968
 20
447.6919202218417
 30
0.0
 40
179.9999999999994
100
AcDbArc
 50
170.8716436587992
 51
171.3086774459929
  0
ARC
  5
464
330
50
100
AcDbEntity
  8
0
  6
Continuous
 62
     1
100
AcDbCircle
 10
112.1902347058846
 20
447.6919202217632
 30
0.0
 40
179.9999999999993
100
AcDbArc
 50
171.3086774459676
 51
174.6445993869464
  0
ARC
  5
465
330
50
100
AcDbEntity
  8
0
  6
Continuous
 62
     1
100
AcDbCircle
 10
-64.54280396651129
 20
419.294155492461
 30
0.0
 40
1.000000000000357
100
AcDbArc
 50
-170.8716436587837
 51
-70.00000000001299
  0
ARC
  5
466
330
50
100
AcDbEntity
  8
0
  6
Continuous
 62
     1
100
AcDbCircle
 10
112.190234705877
 20
447.6919202218155
 30
0.0
 40
179.9999999999993
100
AcDbArc
 50
-171.3086774459525
 51
-170.8716436587587
  0
ARC
  5
467
330
50
100
AcDbEntity
  8
0
  6
Continuous
 62
     1
100
AcDbCircle
 10
112.1902347058846
 20
447.6919202217632
 30
0.0
 40
179.9999999999993
100
AcDbArc
 50
174.6445993869464
 51
178.3445582742842
  0
ARC
  5
468
330
50
100
AcDbEntity
  8
0
  6
Continuous
 62
     1
100
AcDbCircle
 10
112.1902347058849
 20
447.6919202217653
 30
0.0
 40
179.9999999999996
100
AcDbArc
 50
178.3445582742848
 51
-178.3445582742851
  0
ARC
  5
469
330
50
100
AcDbEntity
  8
1
  6
Continuous
 62
     4
100
AcDbCircle
 10
86.80032976224489
 20
447.7591571854861
 30
0.0
 40
155.0000028430622
100
AcDbArc
 50
168.9835075382658
 51
-168.9615595375573
  0
ARC
  5
46A
330
50
100
AcDbEntity
  8
1
  6
Continuous
 62
     1
100
AcDbCircle
 10
-13.80976529411473
 20
382.6919202217657
 30
0.0
 40
52.0
100
AcDbArc
 50
163.2341270273281
 51
-163.2341270273281
  0
ARC
  5
46B
330
50
100
AcDbEntity
  8
1
  6
Continuous
 62
     4
100
AcDbCircle
 10
-65.34578823854567
 20
477.3790724936036
 30
0.0
 40
0.500000000000023
100
AcDbArc
 50
73.33014037873357
 51
168.974015276194
  0
ARC
  5
46C
330
50
100
AcDbEntity
  8
1
  6
Continuous
 62
     1
100
AcDbCircle
 10
-56.52109015951955
 20
406.991969221766
 30
0.0
 40
1.000000000000482
100
AcDbArc
 50
-150.000000000016
 51
-104.8024734232934
  0
ARC
  5
46D
330
50
100
AcDbEntity
  8
1
  6
Continuous
 62
     4
100
AcDbCircle
 10
-65.3393401491471
 20
418.0572077883329
 30
0.0
 40
0.5000000000002104
100
AcDbArc
 50
-168.9725335378672
 51
-70.00000000005143
  0
ARC
  5
46E
330
50
100
AcDbEntity
  8
1
  6
Continuous
 62
     1
100
AcDbCircle
 10
-39.09844042870994
 20
406.991969221766
 30
0.0
 40
1.0
100
AcDbArc
 50
-90.0
 51
-29.99999999998406
  0
ARC
  5
46F
330
50
100
AcDbEntity
  8
1
  6
Continuous
 62
     1
100
AcDbCircle
 10
-39.09844042870994
 20
406.991969221766
 30
0.0
 40
1.0
100
AcDbArc
 50
-90.0
 51
-29.99999999998406
  0
SOLID
  5
470
330
50
100
AcDbEntity
  8
1
 62
     3
100
AcDbTrace
 10
-25.45335196158522
 20
445.0952709596418
 30
0.0
 11
-26.04392256630124
 21
445.8027403842633
 31
0.0
 12
-23.0617553680951
 22
447.6919202217657
 32
0.0
 13
-23.0617553680951
 23
447.6919202217657
 33
0.0
  0
LEADER
  5
471
330
50
100
AcDbEntity
  8
1
  6
Continuous
 62
     3
100
AcDbLeader
  3
Standard
 71
     0
 76
     3
 10
-23.0617553680951
 20
447.6919202217657
 30
0.0
 10
-29.4737238906546
 20
442.3394343107117
 30
0.0
 10
-27.919307279125
 20
442.1451322342707
 30
0.0
  0
TEXT
  5
472
330
50
100
AcDbEntity
  8
1
 62
     3
100
AcDbText
 10
-26.6296874594661
 20
435.612025617991
 30
0.0
 40
2.5
  1
alternatively
 41
0.9
  7
CONVERTER_13
100
AcDbText
  0
MTEXT
  5
473
330
50
100
AcDbEntity
  8
1
 62
     4
100
AcDbMText
 10
-26.9985055335063
 20
443.3340227248737
 30
0.0
 40
3.5
 41
0.0
 71
     1
 72
     1
  1
wahlweise
  7
CONVERTER_13
 73
     1
 44
1.02040816326531
  0
DIMENSION
  5
47E
330
50
100
AcDbEntity
  8
1
100
AcDbDimension
  2
*D24
 10
-81.0933608502719
 20
397.6919202217657
 30
0.0
 11
-84.8433608502719
 21
437.95255932969
 31
0.0
 70
    32
  1
<>
 71
     5
 42
-1.0
 53
90.0
  3
ME10_DIM_26
100
AcDbAlignedDimension
 13
-62.95526066898137
 23
477.6919202217667
 33
0.0
 14
-63.59932243213314
 24
397.6919202217657
 34
0.0
 50
90.0
100
AcDbRotatedDimension
  0
DIMENSION
  5
489
330
50
100
AcDbEntity
  8
1
100
AcDbDimension
  2
*D25
 10
-81.0933608502719
 20
367.6919202217657
 30
0.0
 11
-84.8433608502719
 21
381.771700427264
 31
0.0
 70
    33
  1
<>
 71
     5
 42
-1.0
 53
90.0
  3
ME10_DIM_27
100
AcDbAlignedDimension
 13
-63.59932243213314
 23
397.6919202217657
 33
0.0
 14
-63.59932243213314
 24
367.6919202217657
 34
0.0
  0
DIMENSION
  5
494
330
50
100
AcDbEntity
  8
1
100
AcDbDimension
  2
*D26
 10
28.1674653917836
 20
397.6919202217657
 30
0.0
 11
24.4174653917836
 21
392.35121281798
 31
0.0
 70
    32
  1
<>
 71
     5
 42
-1.0
 53
-90.0
  3
ME10_DIM_28
100
AcDbAlignedDimension
 13
-27.25947229411359
 23
387.6919202217657
 33
0.0
 14
-32.80976529411473
 24
397.6919202217657
 34
0.0
 50
-90.0
100
AcDbRotatedDimension
  0
DIMENSION
  5
49F
330
50
100
AcDbEntity
  8
1
100
AcDbDimension
  2
*D27
 10
37.77108057207305
 20
469.6919202217658
 30
0.0
 11
34.02108057207305
 21
446.9591018386907
 31
0.0
 70
    32
  1
<>
 71
     5
 42
-1.0
 53
90.0
  3
ME10_DIM_29
100
AcDbAlignedDimension
 13
-15.60800980159658
 23
425.6919202217657
 33
0.0
 14
-15.60800980159658
 24
469.6919202217657
 34
0.0
 50
90.0
100
AcDbRotatedDimension
  0
DIMENSION
  5
4AA
330
50
100
AcDbEntity
  8
1
100
AcDbDimension
  2
*D28
 10
37.77108057207305
 20
425.6919202217658
 30
0.0
 11
34.02108057207305
 21
407.1235979610518
 31
0.0
 70
    32
  1
<>
 71
     5
 42
-1.0
 53
90.0
  3
ME10_DIM_30
100
AcDbAlignedDimension
 13
-27.25947229411359
 23
387.6919202217657
 33
0.0
 14
-15.60800980159658
 24
425.6919202217657
 34
0.0
 50
90.0
100
AcDbRotatedDimension
  0
DIMENSION
  5
4B5
330
50
100
AcDbEntity
  8
1
100
AcDbDimension
  2
*D29
 10
27.983673918672
 20
469.6919202217659
 30
0.0
 11
24.233673918672
 21
458.3957465003358
 31
0.0
 70
    33
  1
<>
 71
     5
 42
-1.0
 53
90.0
  3
ME10_DIM_31
100
AcDbAlignedDimension
 13
-15.60800980159658
 23
447.6919202217657
 33
0.0
 14
-15.60800980159658
 24
469.6919202217657
 34
0.0
  0
INSERT
  5
4BF
330
50
100
AcDbEntity
  8
1
100
AcDbBlockReference
  2
*D30
 10
0.0
 20
0.0
 30
0.0
  0
INSERT
  5
4C9
330
50
100
AcDbEntity
  8
1
100
AcDbBlockReference
  2
*D31
 10
0.0
 20
0.0
 30
0.0
  0
ENDBLK
  5
52
330
50
100
AcDbEntity
  8
0
100
AcDbBlockEnd
  0
BLOCK
  5
54
330
53
100
AcDbEntity
  8
0
100
AcDbBlockBegin
  2
Profil-Stahltuer
 70
     0
 71
     0
 10
38.23698848271427
 20
-846.6204062389561
 30
0.0
  3
Profil-Stahltuer
  1

  0
LINE
  5
4CA
330
53
100
AcDbEntity
  8
0
  6
Continuous
 62
     3
100
AcDbLine
 10
17.19023470588528
 20
316.6919202217648
 30
0.0
 11
17.19023470588528
 21
360.6919202217648
 31
0.0
  0
LINE
  5
4CB
330
53
100
AcDbEntity
  8
0
  6
Continuous
 62
     3
100
AcDbLine
 10
-32.80976529411473
 20
316.6919202217648
 30
0.0
 11
17.19023470588528
 21
316.6919202217648
 31
0.0
  0
LINE
  5
4CC
330
53
100
AcDbEntity
  8
0
  6
Continuous
 62
     3
100
AcDbLine
 10
-32.80976529411473
 20
397.6919202217657
 30
0.0
 11
-32.80976529411473
 21
316.6919202217648
 31
0.0
  0
LINE
  5
4CD
330
53
100
AcDbEntity
  8
0
  6
Continuous
 62
     3
100
AcDbLine
 10
-32.80976529411473
 20
485.691142559328
 30
0.0
 11
-32.80976529411473
 21
402.6919202217657
 31
0.0
  0
LINE
  5
4CE
330
53
100
AcDbEntity
  8
0
  6
Continuous
 62
     3
100
AcDbLine
 10
17.19023470588528
 20
365.6919202217648
 30
0.0
 11
17.19023470588528
 21
485.691142559328
 31
0.0
  0
LINE
  5
4CF
330
53
100
AcDbEntity
  8
0
  6
Continuous
 62
     3
100
AcDbLine
 10
17.19023470588528
 20
485.691142559328
 30
0.0
 11
-32.80976529411473
 21
485.691142559328
 31
0.0
  0
LINE
  5
4D0
330
53
100
AcDbEntity
  8
1
  6
Continuous
 62
     3
100
AcDbLine
 10
17.19023470588528
 20
365.6919202217648
 30
0.0
 11
12.19023470588528
 21
365.6919202217648
 31
0.0
  0
LINE
  5
4D1
330
53
100
AcDbEntity
  8
1
  6
Continuous
 62
     3
100
AcDbLine
 10
17.19023470588528
 20
360.6919202217648
 30
0.0
 11
12.19023470588528
 21
360.6919202217648
 31
0.0
  0
ENDBLK
  5
55
330
53
100
AcDbEntity
  8
0
100
AcDbBlockEnd
  0
BLOCK
  5
59
330
56
100
AcDbEntity
  8
0
100
AcDbBlockBegin
  2
Schnitt
 70
     0
 71
     0
 10
-69.1786818220176
 20
303.993923411924
 30
0.0
  3
Schnitt
  1

  0
INSERT
  5
57
330
56
100
AcDbEntity
  8
1
100
AcDbBlockReference
  2
Drehlager
 10
-88.0786818220176
 20
367.6919202217657
 30
0.0
  0
INSERT
  5
58
330
56
100
AcDbEntity
  8
1
100
AcDbBlockReference
  2
Profil-Stahltuer
 10
38.23698848271427
 20
-846.6204062389561
 30
0.0
  0
ENDBLK
  5
5A
330
56
100
AcDbEntity
  8
0
100
AcDbBlockEnd
  0
BLOCK
  5
1D0
330
1C8
100
AcDbEntity
  8
0
100
AcDbBlockBegin
  2
*D8
 70
     1
 71
     0
 10
0.0
 20
0.0
 30
0.0
  3
*D8
  1

  0
LINE
  5
1C9
330
1C8
100
AcDbEntity
  8
1
  6
Continuous
 62
     3
100
AcDbLine
 10
606.3287982445114
 20
573.822987518695
 30
0.0
 11
153.8400092629663
 21
573.822987518695
 31
0.0
  0
LINE
  5
1CA
330
1C8
100
AcDbEntity
  8
1
  6
Continuous
 62
     3
100
AcDbLine
 10
153.8400092629663
 20
614.200194
 30
0.0
 11
153.8400092629663
 21
569.822987518695
 31
0.0
  0
LINE
  5
1CB
330
1C8
100
AcDbEntity
  8
1
  6
Continuous
 62
     3
100
AcDbLine
 10
606.3287982445114
 20
614.200194
 30
0.0
 11
606.3287982445114
 21
596.232286880548
 31
0.0
  0
LINE
  5
1CC
330
1C8
100
AcDbEntity
  8
1
  6
Continuous
 62
     3
100
AcDbLine
 10
606.3287982445114
 20
588.400487883436
 30
0.0
 11
606.3287982445114
 21
569.822987518695
 31
0.0
  0
SOLID
  5
1CD
330
1C8
100
AcDbEntity
  8
1
 62
     3
100
AcDbTrace
 10
599.3287982445114
 20
572.9014200355832
 30
0.0
 11
599.3287982445114
 21
574.7445550018067
 31
0.0
 12
606.3287982445114
 22
573.822987518695
 32
0.0
 13
606.3287982445114
 23
573.822987518695
 33
0.0
  0
SOLID
  5
1CE
330
1C8
100
AcDbEntity
  8
1
 62
     3
100
AcDbTrace
 10
160.8400092629663
 20
574.7445550018067
 30
0.0
 11
160.8400092629663
 21
572.9014200355832
 31
0.0
 12
153.8400092629663
 22
573.822987518695
 32
0.0
 13
153.8400092629663
 23
573.822987518695
 33
0.0
  0
MTEXT
  5
1CF
330
1C8
100
AcDbEntity
  8
1
 62
     4
100
AcDbMText
 10
381.855192658745
 20
577.822987518695
 30
0.0
 40
7.0
 41
0.0
 71
     7
 72
     1
  1
452.5
  7
CONVERTER_13
 11
0.9999999999970619
 21
2.424068405545306E-6
 31
0.0
 73
     1
 44
0.60024009603842
  0
ENDBLK
  5
1D1
330
1C8
100
AcDbEntity
  8
0
100
AcDbBlockEnd
  0
BLOCK
  5
1DC
330
1D4
100
AcDbEntity
  8
0
100
AcDbBlockBegin
  2
*D9
 70
     1
 71
     0
 10
0.0
 20
0.0
 30
0.0
  3
*D9
  1

  0
LINE
  5
1D5
330
1D4
100
AcDbEntity
  8
1
  6
Continuous
 62
     3
100
AcDbLine
 10
714.3287982445112
 20
573.822987518695
 30
0.0
 11
606.3287982445114
 21
573.822987518695
 31
0.0
  0
LINE
  5
1D6
330
1D4
100
AcDbEntity
  8
1
  6
Continuous
 62
     3
100
AcDbLine
 10
606.3287982445114
 20
614.200194
 30
0.0
 11
606.3287982445114
 21
595.208472124854
 31
0.0
  0
LINE
  5
1D7
330
1D4
100
AcDbEntity
  8
1
  6
Continuous
 62
     3
100
AcDbLine
 10
606.3287982445114
 20
588.95767203583
 30
0.0
 11
606.3287982445114
 21
569.822987518695
 31
0.0
  0
LINE
  5
1D8
330
1D4
100
AcDbEntity
  8
1
  6
Continuous
 62
     3
100
AcDbLine
 10
714.3287982445112
 20
577.0004899999999
 30
0.0
 11
714.3287982445112
 21
569.822987518695
 31
0.0
  0
SOLID
  5
1D9
330
1D4
100
AcDbEntity
  8
1
 62
     3
100
AcDbTrace
 10
707.3287982445112
 20
572.9014200355832
 30
0.0
 11
707.3287982445112
 21
574.7445550018067
 31
0.0
 12
714.3287982445112
 22
573.822987518695
 32
0.0
 13
714.3287982445112
 23
573.822987518695
 33
0.0
  0
SOLID
  5
1DA
330
1D4
100
AcDbEntity
  8
1
 62
     3
100
AcDbTrace
 10
613.3287982445114
 20
574.7445550018067
 30
0.0
 11
613.3287982445114
 21
572.9014200355832
 31
0.0
 12
606.3287982445114
 22
573.822987518695
 32
0.0
 13
606.3287982445114
 23
573.822987518695
 33
0.0
  0
MTEXT
  5
1DB
330
1D4
100
AcDbEntity
  8
1
 62
     4
100
AcDbMText
 10
647.715388162994
 20
577.822987518695
 30
0.0
 40
7.0
 41
0.0
 71
     7
 72
     1
  1
108
  7
CONVERTER_13
 11
0.9999999999970619
 21
2.424068405545306E-6
 31
0.0
 73
     1
 44
0.60024009603842
  0
ENDBLK
  5
1DD
330
1D4
100
AcDbEntity
  8
0
100
AcDbBlockEnd
  0
BLOCK
  5
1E8
330
1E0
100
AcDbEntity
  8
0
100
AcDbBlockBegin
  2
*D10
 70
     1
 71
     0
 10
0.0
 20
0.0
 30
0.0
  3
*D10
  1

  0
LINE
  5
1E1
330
1E0
100
AcDbEntity
  8
1
  6
Continuous
 62
     3
100
AcDbLine
 10
554.3278202445114
 20
765.689417113709
 30
0.0
 11
494.3278202445114
 21
765.689417113709
 31
0.0
  0
LINE
  5
1E2
330
1E0
100
AcDbEntity
  8
1
  6
Continuous
 62
     3
100
AcDbLine
 10
494.3278202445114
 20
723.3972767293039
 30
0.0
 11
494.3278202445114
 21
769.689417113709
 31
0.0
  0
LINE
  5
1E3
330
1E0
100
AcDbEntity
  8
1
  6
Continuous
 62
     3
100
AcDbLine
 10
554.3278202445114
 20
723.3972767293039
 30
0.0
 11
554.3278202445114
 21
744.900683375277
 31
0.0
  0
LINE
  5
1E4
330
1E0
100
AcDbEntity
  8
1
  6
Continuous
 62
     3
100
AcDbLine
 10
554.3278202445114
 20
752.110334673386
 30
0.0
 11
554.3278202445114
 21
769.689417113709
 31
0.0
  0
SOLID
  5
1E5
330
1E0
100
AcDbEntity
  8
1
 62
     3
100
AcDbTrace
 10
547.3278202445114
 20
764.7678496305973
 30
0.0
 11
547.3278202445114
 21
766.6109845968208
 31
0.0
 12
554.3278202445114
 22
765.689417113709
 32
0.0
 13
554.3278202445114
 23
765.689417113709
 33
0.0
  0
SOLID
  5
1E6
330
1E0
100
AcDbEntity
  8
1
 62
     3
100
AcDbTrace
 10
501.3278202445114
 20
766.6109845968208
 30
0.0
 11
501.3278202445114
 21
764.7678496305973
 31
0.0
 12
494.3278202445114
 22
765.689417113709
 32
0.0
 13
494.3278202445114
 23
765.689417113709
 33
0.0
  0
MTEXT
  5
1E7
330
1E0
100
AcDbEntity
  8
1
 62
     4
100
AcDbMText
 10
517.698465656565
 20
769.689417113709
 30
0.0
 40
7.0
 41
0.0
 71
     7
 72
     1
  1
60
  7
CONVERTER_13
 11
0.9999999999970619
 21
2.424068405545306E-6
 31
0.0
 73
     1
 44
0.60024009603842
  0
ENDBLK
  5
1E9
330
1E0
100
AcDbEntity
  8
0
100
AcDbBlockEnd
  0
BLOCK
  5
1F4
330
1EC
100
AcDbEntity
  8
0
100
AcDbBlockBegin
  2
*D11
 70
     1
 71
     0
 10
0.0
 20
0.0
 30
0.0
  3
*D11
  1

  0
LINE
  5
1ED
330
1EC
100
AcDbEntity
  8
1
  6
Continuous
 62
     3
100
AcDbLine
 10
714.3287982445112
 20
765.318302162848
 30
0.0
 11
554.3278202445114
 21
765.318302162848
 31
0.0
  0
LINE
  5
1EE
330
1EC
100
AcDbEntity
  8
1
  6
Continuous
 62
     3
100
AcDbLine
 10
554.3278202445114
 20
723.3972767293039
 30
0.0
 11
554.3278202445114
 21
744.900683375277
 31
0.0
  0
LINE
  5
1EF
330
1EC
100
AcDbEntity
  8
1
  6
Continuous
 62
     3
100
AcDbLine
 10
554.3278202445114
 20
752.39461617589
 30
0.0
 11
554.3278202445114
 21
769.318302162848
 31
0.0
  0
LINE
  5
1F0
330
1EC
100
AcDbEntity
  8
1
  6
Continuous
 62
     3
100
AcDbLine
 10
714.3287982445112
 20
577.0004899999999
 30
0.0
 11
714.3287982445112
 21
769.318302162848
 31
0.0
  0
SOLID
  5
1F1
330
1EC
100
AcDbEntity
  8
1
 62
     3
100
AcDbTrace
 10
707.3287982445112
 20
764.3967346797363
 30
0.0
 11
707.3287982445112
 21
766.2398696459597
 31
0.0
 12
714.3287982445112
 22
765.318302162848
 32
0.0
 13
714.3287982445112
 23
765.318302162848
 33
0.0
  0
SOLID
  5
1F2
330
1EC
100
AcDbEntity
  8
1
 62
     3
100
AcDbTrace
 10
561.3278202445114
 20
766.2398696459597
 30
0.0
 11
561.3278202445114
 21
764.3967346797363
 31
0.0
 12
554.3278202445114
 22
765.318302162848
 32
0.0
 13
554.3278202445114
 23
765.318302162848
 33
0.0
  0
MTEXT
  5
1F3
330
1EC
100
AcDbEntity
  8
1
 62
     4
100
AcDbMText
 10
620.623996750158
 20
769.318302162848
 30
0.0
 40
7.0
 41
0.0
 71
     7
 72
     1
  1
160
  7
CONVERTER_13
 11
0.9999999999970619
 21
2.424068405545306E-6
 31
0.0
 73
     1
 44
0.60024009603842
  0
ENDBLK
  5
1F5
330
1EC
100
AcDbEntity
  8
0
100
AcDbBlockEnd
  0
BLOCK
  5
200
330
1F8
100
AcDbEntity
  8
0
100
AcDbBlockBegin
  2
*D12
 70
     1
 71
     0
 10
0.0
 20
0.0
 30
0.0
  3
*D12
  1

  0
LINE
  5
1F9
330
1F8
100
AcDbEntity
  8
1
  6
Continuous
 62
     3
100
AcDbLine
 10
311.4412892629663
 20
833.661763518136
 30
0.0
 11
763.9300782445114
 21
833.661763518136
 31
0.0
  0
LINE
  5
1FA
330
1F8
100
AcDbEntity
  8
1
  6
Continuous
 62
     3
100
AcDbLine
 10
763.9300782445114
 20
873.840030631488
 30
0.0
 11
763.9300782445114
 21
829.661763518136
 31
0.0
  0
LINE
  5
1FB
330
1F8
100
AcDbEntity
  8
1
  6
Continuous
 62
     3
100
AcDbLine
 10
311.4412892629663
 20
873.840030631488
 30
0.0
 11
311.4412892629663
 21
854.352290496577
 31
0.0
  0
LINE
  5
1FC
330
1F8
100
AcDbEntity
  8
1
  6
Continuous
 62
     3
100
AcDbLine
 10
311.4412892629663
 20
848.376179396655
 30
0.0
 11
311.4412892629663
 21
829.661763518136
 31
0.0
  0
SOLID
  5
1FD
330
1F8
100
AcDbEntity
  8
1
 62
     3
100
AcDbTrace
 10
318.4412892629663
 20
834.5833310012478
 30
0.0
 11
318.4412892629663
 21
832.7401960350243
 31
0.0
 12
311.4412892629663
 22
833.661763518136
 32
0.0
 13
311.4412892629663
 23
833.661763518136
 33
0.0
  0
SOLID
  5
1FE
330
1F8
100
AcDbEntity
  8
1
 62
     3
100
AcDbTrace
 10
756.9300782445114
 20
832.7401960350243
 30
0.0
 11
756.9300782445114
 21
834.5833310012478
 31
0.0
 12
763.9300782445114
 22
833.661763518136
 32
0.0
 13
763.9300782445114
 23
833.661763518136
 33
0.0
  0
MTEXT
  5
1FF
330
1F8
100
AcDbEntity
  8
1
 62
     4
100
AcDbMText
 10
492.566317140254
 20
837.661763518136
 30
0.0
 40
7.0
 41
0.0
 71
     7
 72
     1
  1
452.5
  7
CONVERTER_13
 11
0.9999999999970619
 21
2.424068405545306E-6
 31
0.0
 73
     1
 44
0.60024009603842
  0
ENDBLK
  5
201
330
1F8
100
AcDbEntity
  8
0
100
AcDbBlockEnd
  0
BLOCK
  5
20C
330
204
100
AcDbEntity
  8
0
100
AcDbBlockBegin
  2
*D13
 70
     1
 71
     0
 10
0.0
 20
0.0
 30
0.0
  3
*D13
  1

  0
LINE
  5
205
330
204
100
AcDbEntity
  8
1
  6
Continuous
 62
     3
100
AcDbLine
 10
203.4412892629663
 20
833.661763518136
 30
0.0
 11
311.4412892629663
 21
833.661763518136
 31
0.0
  0
LINE
  5
206
330
204
100
AcDbEntity
  8
1
  6
Continuous
 62
     3
100
AcDbLine
 10
311.4412892629663
 20
873.840030631488
 30
0.0
 11
311.4412892629663
 21
854.632669545087
 31
0.0
  0
LINE
  5
207
330
204
100
AcDbEntity
  8
1
  6
Continuous
 62
     3
100
AcDbLine
 10
311.4412892629663
 20
848.554306773454
 30
0.0
 11
311.4412892629663
 21
829.661763518136
 31
0.0
  0
LINE
  5
208
330
204
100
AcDbEntity
  8
1
  6
Continuous
 62
     3
100
AcDbLine
 10
203.4412892629663
 20
836.6403266314879
 30
0.0
 11
203.4412892629663
 21
829.661763518136
 31
0.0
  0
SOLID
  5
209
330
204
100
AcDbEntity
  8
1
 62
     3
100
AcDbTrace
 10
210.4412892629663
 20
834.5833310012478
 30
0.0
 11
210.4412892629663
 21
832.7401960350243
 31
0.0
 12
203.4412892629663
 22
833.661763518136
 32
0.0
 13
203.4412892629663
 23
833.661763518136
 33
0.0
  0
SOLID
  5
20A
330
204
100
AcDbEntity
  8
1
 62
     3
100
AcDbTrace
 10
304.4412892629663
 20
832.7401960350243
 30
0.0
 11
304.4412892629663
 21
834.5833310012478
 31
0.0
 12
311.4412892629663
 22
833.661763518136
 32
0.0
 13
311.4412892629663
 23
833.661763518136
 33
0.0
  0
MTEXT
  5
20B
330
204
100
AcDbEntity
  8
1
 62
     4
100
AcDbMText
 10
247.794155469489
 20
837.661763518136
 30
0.0
 40
7.0
 41
0.0
 71
     7
 72
     1
  1
108
  7
CONVERTER_13
 11
0.9999999999970619
 21
2.424068405545306E-6
 31
0.0
 73
     1
 44
0.60024009603842
  0
ENDBLK
  5
20D
330
204
100
AcDbEntity
  8
0
100
AcDbBlockEnd
  0
BLOCK
  5
218
330
210
100
AcDbEntity
  8
0
100
AcDbBlockBegin
  2
*D14
 70
     1
 71
     0
 10
0.0
 20
0.0
 30
0.0
  3
*D14
  1

  0
LINE
  5
211
330
210
100
AcDbEntity
  8
1
  6
Continuous
 62
     3
100
AcDbLine
 10
363.4422672629661
 20
1027.89623025554
 30
0.0
 11
423.4422672629663
 21
1027.89623025554
 31
0.0
  0
LINE
  5
212
330
210
100
AcDbEntity
  8
1
  6
Continuous
 62
     3
100
AcDbLine
 10
423.4422672629663
 20
983.6393486314893
 30
0.0
 11
423.4422672629663
 21
1031.89623025554
 31
0.0
  0
LINE
  5
213
330
210
100
AcDbEntity
  8
1
  6
Continuous
 62
     3
100
AcDbLine
 10
363.4422672629661
 20
983.6393486314893
 30
0.0
 11
363.4422672629661
 21
1005.05970665734
 31
0.0
  0
LINE
  5
214
330
210
100
AcDbEntity
  8
1
  6
Continuous
 62
     3
100
AcDbLine
 10
363.4422672629661
 20
1011.10244326991
 30
0.0
 11
363.4422672629661
 21
1031.89623025554
 31
0.0
  0
SOLID
  5
215
330
210
100
AcDbEntity
  8
1
 62
     3
100
AcDbTrace
 10
370.4422672629661
 20
1028.817797738652
 30
0.0
 11
370.4422672629661
 21
1026.974662772428
 31
0.0
 12
363.4422672629661
 22
1027.89623025554
 32
0.0
 13
363.4422672629661
 23
1027.89623025554
 33
0.0
  0
SOLID
  5
216
330
210
100
AcDbEntity
  8
1
 62
     3
100
AcDbTrace
 10
416.4422672629663
 20
1026.974662772428
 30
0.0
 11
416.4422672629663
 21
1028.817797738652
 31
0.0
 12
423.4422672629663
 22
1027.89623025554
 32
0.0
 13
423.4422672629663
 23
1027.89623025554
 33
0.0
  0
MTEXT
  5
217
330
210
100
AcDbEntity
  8
1
 62
     4
100
AcDbMText
 10
386.240965833276
 20
1031.89623025554
 30
0.0
 40
7.0
 41
0.0
 71
     7
 72
     1
  1
60
  7
CONVERTER_13
 11
0.9999999999970619
 21
2.424068405545306E-6
 31
0.0
 73
     1
 44
0.60024009603842
  0
ENDBLK
  5
219
330
210
100
AcDbEntity
  8
0
100
AcDbBlockEnd
  0
BLOCK
  5
224
330
21C
100
AcDbEntity
  8
0
100
AcDbBlockBegin
  2
*D15
 70
     1
 71
     0
 10
0.0
 20
0.0
 30
0.0
  3
*D15
  1

  0
LINE
  5
21D
330
21C
100
AcDbEntity
  8
1
  6
Continuous
 62
     3
100
AcDbLine
 10
203.4412892629663
 20
1027.89623025554
 30
0.0
 11
363.4422672629661
 21
1027.89623025554
 31
0.0
  0
LINE
  5
21E
330
21C
100
AcDbEntity
  8
1
  6
Continuous
 62
     3
100
AcDbLine
 10
363.4422672629661
 20
924.2415839021829
 30
0.0
 11
363.4422672629661
 21
1005.72203236564
 31
0.0
  0
LINE
  5
21F
330
21C
100
AcDbEntity
  8
1
  6
Continuous
 62
     3
100
AcDbLine
 10
363.4422672629661
 20
1010.7863258328
 30
0.0
 11
363.4422672629661
 21
1031.89623025554
 31
0.0
  0
LINE
  5
220
330
21C
100
AcDbEntity
  8
1
  6
Continuous
 62
     3
100
AcDbLine
 10
203.4412892629663
 20
836.6403266314879
 30
0.0
 11
203.4412892629663
 21
1031.89623025554
 31
0.0
  0
SOLID
  5
221
330
21C
100
AcDbEntity
  8
1
 62
     3
100
AcDbTrace
 10
210.4412892629663
 20
1028.817797738652
 30
0.0
 11
210.4412892629663
 21
1026.974662772428
 31
0.0
 12
203.4412892629663
 22
1027.89623025554
 32
0.0
 13
203.4412892629663
 23
1027.89623025554
 33
0.0
  0
SOLID
  5
222
330
21C
100
AcDbEntity
  8
1
 62
     3
100
AcDbTrace
 10
356.4422672629661
 20
1026.974662772428
 30
0.0
 11
356.4422672629661
 21
1028.817797738652
 31
0.0
 12
363.4422672629661
 22
1027.89623025554
 32
0.0
 13
363.4422672629661
 23
1027.89623025554
 33
0.0
  0
MTEXT
  5
223
330
21C
100
AcDbEntity
  8
1
 62
     4
100
AcDbMText
 10
271.286929035727
 20
1031.89623025554
 30
0.0
 40
7.0
 41
0.0
 71
     7
 72
     1
  1
160
  7
CONVERTER_13
 11
0.9999999999970619
 21
2.424068405545306E-6
 31
0.0
 73
     1
 44
0.60024009603842
  0
ENDBLK
  5
225
330
21C
100
AcDbEntity
  8
0
100
AcDbBlockEnd
  0
BLOCK
  5
22F
330
228
100
AcDbEntity
  8
0
100
AcDbBlockBegin
  2
*D16
 70
     1
 71
     0
 10
0.0
 20
0.0
 30
0.0
  3
*D16
  1

  0
LINE
  5
229
330
228
100
AcDbEntity
  8
1
  6
Continuous
 62
     3
100
AcDbLine
 10
373.4422672629661
 20
1008.35249372506
 30
0.0
 11
413.4422672629661
 21
1008.35249372506
 31
0.0
  0
LINE
  5
22A
330
228
100
AcDbEntity
  8
1
  6
Continuous
 62
     3
100
AcDbLine
 10
373.4422672629661
 20
984.6393486314879
 30
0.0
 11
373.4422672629661
 21
1012.35249372506
 31
0.0
  0
LINE
  5
22B
330
228
100
AcDbEntity
  8
1
  6
Continuous
 62
     3
100
AcDbLine
 10
413.4422672629661
 20
984.6393486314879
 30
0.0
 11
413.4422672629661
 21
1012.35249372506
 31
0.0
  0
SOLID
  5
22C
330
228
100
AcDbEntity
  8
1
 62
     3
100
AcDbTrace
 10
380.4422672629661
 20
1009.274061208172
 30
0.0
 11
380.4422672629661
 21
1007.430926241948
 31
0.0
 12
373.4422672629661
 22
1008.35249372506
 32
0.0
 13
373.4422672629661
 23
1008.35249372506
 33
0.0
  0
SOLID
  5
22D
330
228
100
AcDbEntity
  8
1
 62
     3
100
AcDbTrace
 10
406.4422672629661
 20
1007.430926241948
 30
0.0
 11
406.4422672629661
 21
1009.274061208172
 31
0.0
 12
413.4422672629661
 22
1008.35249372506
 32
0.0
 13
413.4422672629661
 23
1008.35249372506
 33
0.0
  0
MTEXT
  5
22E
330
228
100
AcDbEntity
  8
1
 62
     4
100
AcDbMText
 10
381.416466944224
 20
1012.35249372506
 30
0.0
 40
7.0
 41
0.0
 71
     7
 72
     1
  1
\C4;40\C3;\H4.2;\U+00b10.2
  7
CONVERTER_13
 11
0.9999999999970619
 21
2.424068405545306E-6
 31
0.0
 73
     1
 44
0.60024009603842
  0
ENDBLK
  5
230
330
228
100
AcDbEntity
  8
0
100
AcDbBlockEnd
  0
BLOCK
  5
23A
330
233
100
AcDbEntity
  8
0
100
AcDbBlockBegin
  2
*D17
 70
     1
 71
     0
 10
0.0
 20
0.0
 30
0.0
  3
*D17
  1

  0
LINE
  5
234
330
233
100
AcDbEntity
  8
1
  6
Continuous
 62
     3
100
AcDbLine
 10
373.4422672629661
 20
1008.34547813632
 30
0.0
 11
203.4412892629663
 21
1008.34547813632
 31
0.0
  0
LINE
  5
235
330
233
100
AcDbEntity
  8
1
  6
Continuous
 62
     3
100
AcDbLine
 10
373.4422672629661
 20
984.6393486314879
 30
0.0
 11
373.4422672629661
 21
1012.34547813632
 31
0.0
  0
LINE
  5
236
330
233
100
AcDbEntity
  8
1
  6
Continuous
 62
     3
100
AcDbLine
 10
203.4412892629663
 20
836.6403266314879
 30
0.0
 11
203.4412892629663
 21
1012.34547813632
 31
0.0
  0
SOLID
  5
237
330
233
100
AcDbEntity
  8
1
 62
     3
100
AcDbTrace
 10
366.4422672629661
 20
1007.423910653208
 30
0.0
 11
366.4422672629661
 21
1009.267045619432
 31
0.0
 12
373.4422672629661
 22
1008.34547813632
 32
0.0
 13
373.4422672629661
 23
1008.34547813632
 33
0.0
  0
SOLID
  5
238
330
233
100
AcDbEntity
  8
1
 62
     3
100
AcDbTrace
 10
210.4412892629663
 20
1009.267045619432
 30
0.0
 11
210.4412892629663
 21
1007.423910653208
 31
0.0
 12
203.4412892629663
 22
1008.34547813632
 32
0.0
 13
203.4412892629663
 23
1008.34547813632
 33
0.0
  0
MTEXT
  5
239
330
233
100
AcDbEntity
  8
1
 62
     4
100
AcDbMText
 10
270.546429520488
 20
1012.34547813632
 30
0.0
 40
7.0
 41
0.0
 71
     7
 72
     1
  1
\C4;170\C3;\H4.2;\U+00b11
  7
CONVERTER_13
 11
0.9999999999970619
 21
2.424068405545306E-6
 31
0.0
 73
     1
 44
0.60024009603842
  0
ENDBLK
  5
23B
330
233
100
AcDbEntity
  8
0
100
AcDbBlockEnd
  0
BLOCK
  5
245
330
23E
100
AcDbEntity
  8
0
100
AcDbBlockBegin
  2
*D18
 70
     1
 71
     0
 10
0.0
 20
0.0
 30
0.0
  3
*D18
  1

  0
LINE
  5
23F
330
23E
100
AcDbEntity
  8
1
  6
Continuous
 62
     3
100
AcDbLine
 10
544.3278202445114
 20
748.7126570935719
 30
0.0
 11
504.3278202445114
 21
748.7126570935719
 31
0.0
  0
LINE
  5
240
330
23E
100
AcDbEntity
  8
1
  6
Continuous
 62
     3
100
AcDbLine
 10
544.3278202445114
 20
724.9995119999999
 30
0.0
 11
544.3278202445114
 21
752.7126570935719
 31
0.0
  0
LINE
  5
241
330
23E
100
AcDbEntity
  8
1
  6
Continuous
 62
     3
100
AcDbLine
 10
504.3278202445114
 20
724.9995119999999
 30
0.0
 11
504.3278202445114
 21
752.7126570935719
 31
0.0
  0
SOLID
  5
242
330
23E
100
AcDbEntity
  8
1
 62
     3
100
AcDbTrace
 10
537.3278202445114
 20
747.7910896104602
 30
0.0
 11
537.3278202445114
 21
749.6342245766837
 31
0.0
 12
544.3278202445114
 22
748.7126570935719
 32
0.0
 13
544.3278202445114
 23
748.7126570935719
 33
0.0
  0
SOLID
  5
243
330
23E
100
AcDbEntity
  8
1
 62
     3
100
AcDbTrace
 10
511.3278202445114
 20
749.6342245766837
 30
0.0
 11
511.3278202445114
 21
747.7910896104602
 31
0.0
 12
504.3278202445114
 22
748.7126570935719
 32
0.0
 13
504.3278202445114
 23
748.7126570935719
 33
0.0
  0
MTEXT
  5
244
330
23E
100
AcDbEntity
  8
1
 62
     4
100
AcDbMText
 10
511.7486205632534
 20
752.7126570935719
 30
0.0
 40
7.0
 41
0.0
 71
     7
 72
     1
  1
\C4;40\C3;\H4.2;\U+00b10.2
  7
CONVERTER_13
 11
0.9999999999970619
 21
2.424068405545306E-6
 31
0.0
 73
     1
 44
0.60024009603842
  0
ENDBLK
  5
246
330
23E
100
AcDbEntity
  8
0
100
AcDbBlockEnd
  0
BLOCK
  5
250
330
249
100
AcDbEntity
  8
0
100
AcDbBlockBegin
  2
*D19
 70
     1
 71
     0
 10
0.0
 20
0.0
 30
0.0
  3
*D19
  1

  0
LINE
  5
24A
330
249
100
AcDbEntity
  8
1
  6
Continuous
 62
     3
100
AcDbLine
 10
544.3278202445114
 20
748.705641504832
 30
0.0
 11
714.3287982445112
 21
748.705641504832
 31
0.0
  0
LINE
  5
24B
330
249
100
AcDbEntity
  8
1
  6
Continuous
 62
     3
100
AcDbLine
 10
544.3278202445114
 20
724.9995119999999
 30
0.0
 11
544.3278202445114
 21
752.705641504832
 31
0.0
  0
LINE
  5
24C
330
249
100
AcDbEntity
  8
1
  6
Continuous
 62
     3
100
AcDbLine
 10
714.3287982445112
 20
577.0004899999999
 30
0.0
 11
714.3287982445112
 21
752.705641504832
 31
0.0
  0
SOLID
  5
24D
330
249
100
AcDbEntity
  8
1
 62
     3
100
AcDbTrace
 10
551.3278202445114
 20
749.6272089879437
 30
0.0
 11
551.3278202445114
 21
747.7840740217202
 31
0.0
 12
544.3278202445114
 22
748.705641504832
 32
0.0
 13
544.3278202445114
 23
748.705641504832
 33
0.0
  0
SOLID
  5
24E
330
249
100
AcDbEntity
  8
1
 62
     3
100
AcDbTrace
 10
707.3287982445112
 20
747.7840740217202
 30
0.0
 11
707.3287982445112
 21
749.6272089879437
 31
0.0
 12
714.3287982445112
 22
748.705641504832
 32
0.0
 13
714.3287982445112
 23
748.705641504832
 33
0.0
  0
MTEXT
  5
24F
330
249
100
AcDbEntity
  8
1
 62
     4
100
AcDbMText
 10
624.8236579869894
 20
752.705641504832
 30
0.0
 40
7.0
 41
0.0
 71
     7
 72
     1
  1
\C4;170\C3;\H4.2;\U+00b11
  7
CONVERTER_13
 11
0.9999999999970619
 21
2.424068405545306E-6
 31
0.0
 73
     1
 44
0.60024009603842
  0
ENDBLK
  5
251
330
249
100
AcDbEntity
  8
0
100
AcDbBlockEnd
  0
BLOCK
  5
25B
330
254
100
AcDbEntity
  8
0
100
AcDbBlockBegin
  2
*D20
 70
     1
 71
     0
 10
0.0
 20
0.0
 30
0.0
  3
*D20
  1

  0
LINE
  5
255
330
254
100
AcDbEntity
  8
1
  6
Continuous
 62
     3
100
AcDbLine
 10
203.4412892629663
 20
851.487112665725
 30
0.0
 11
323.4412892629663
 21
851.487112665725
 31
0.0
  0
LINE
  5
256
330
254
100
AcDbEntity
  8
1
  6
Continuous
 62
     3
100
AcDbLine
 10
203.4412892629663
 20
836.6403266314879
 30
0.0
 11
203.4412892629663
 21
855.487112665725
 31
0.0
  0
LINE
  5
257
330
254
100
AcDbEntity
  8
1
  6
Continuous
 62
     3
100
AcDbLine
 10
323.4412892629663
 20
886.6393486314879
 30
0.0
 11
323.4412892629663
 21
847.487112665725
 31
0.0
  0
SOLID
  5
258
330
254
100
AcDbEntity
  8
1
 62
     3
100
AcDbTrace
 10
210.4412892629663
 20
852.4086801488368
 30
0.0
 11
210.4412892629663
 21
850.5655451826133
 31
0.0
 12
203.4412892629663
 22
851.487112665725
 32
0.0
 13
203.4412892629663
 23
851.487112665725
 33
0.0
  0
SOLID
  5
259
330
254
100
AcDbEntity
  8
1
 62
     3
100
AcDbTrace
 10
316.4412892629663
 20
850.5655451826133
 30
0.0
 11
316.4412892629663
 21
852.4086801488368
 31
0.0
 12
323.4412892629663
 22
851.487112665725
 32
0.0
 13
323.4412892629663
 23
851.487112665725
 33
0.0
  0
MTEXT
  5
25A
330
254
100
AcDbEntity
  8
1
 62
     4
100
AcDbMText
 10
238.373481391004
 20
855.487112665725
 30
0.0
 40
7.0
 41
0.0
 71
     7
 72
     1
  1
\C4;120\C3;\H4.2;\U+00b11
  7
CONVERTER_13
 11
0.9999999999970619
 21
2.424068405545306E-6
 31
0.0
 73
     1
 44
0.60024009603842
  0
ENDBLK
  5
25C
330
254
100
AcDbEntity
  8
0
100
AcDbBlockEnd
  0
BLOCK
  5
266
330
25F
100
AcDbEntity
  8
0
100
AcDbBlockBegin
  2
*D21
 70
     1
 71
     0
 10
0.0
 20
0.0
 30
0.0
  3
*D21
  1

  0
LINE
  5
260
330
25F
100
AcDbEntity
  8
1
  6
Continuous
 62
     3
100
AcDbLine
 10
323.4412892629663
 20
851.663931219111
 30
0.0
 11
751.9406892629663
 21
851.663931219111
 31
0.0
  0
LINE
  5
261
330
25F
100
AcDbEntity
  8
1
  6
Continuous
 62
     3
100
AcDbLine
 10
323.4412892629663
 20
886.6393486314879
 30
0.0
 11
323.4412892629663
 21
847.663931219111
 31
0.0
  0
LINE
  5
262
330
25F
100
AcDbEntity
  8
1
  6
Continuous
 62
     3
100
AcDbLine
 10
751.9406892629663
 20
886.6393486314879
 30
0.0
 11
751.9406892629663
 21
847.663931219111
 31
0.0
  0
SOLID
  5
263
330
25F
100
AcDbEntity
  8
1
 62
     3
100
AcDbTrace
 10
330.4412892629663
 20
852.5854987022227
 30
0.0
 11
330.4412892629663
 21
850.7423637359992
 31
0.0
 12
323.4412892629663
 22
851.663931219111
 32
0.0
 13
323.4412892629663
 23
851.663931219111
 33
0.0
  0
SOLID
  5
264
330
25F
100
AcDbEntity
  8
1
 62
     3
100
AcDbTrace
 10
744.9406892629663
 20
850.7423637359992
 30
0.0
 11
744.9406892629663
 21
852.5854987022227
 31
0.0
 12
751.9406892629663
 22
851.663931219111
 32
0.0
 13
751.9406892629663
 23
851.663931219111
 33
0.0
  0
MTEXT
  5
265
330
25F
100
AcDbEntity
  8
1
 62
     4
100
AcDbMText
 10
503.5393685549441
 20
855.663931219111
 30
0.0
 40
7.0
 41
0.0
 71
     7
 72
     1
  1
\C4;428.5\C3;\H4.2;\U+00b10.2
  7
CONVERTER_13
 11
0.9999999999970619
 21
2.424068405545306E-6
 31
0.0
 73
     1
 44
0.60024009603842
  0
ENDBLK
  5
267
330
25F
100
AcDbEntity
  8
0
100
AcDbBlockEnd
  0
BLOCK
  5
271
330
26A
100
AcDbEntity
  8
0
100
AcDbBlockBegin
  2
*D22
 70
     1
 71
     0
 10
0.0
 20
0.0
 30
0.0
  3
*D22
  1

  0
LINE
  5
26B
330
26A
100
AcDbEntity
  8
1
  6
Continuous
 62
     3
100
AcDbLine
 10
714.3287982445112
 20
591.847276034237
 30
0.0
 11
594.3287982445114
 21
591.847276034237
 31
0.0
  0
LINE
  5
26C
330
26A
100
AcDbEntity
  8
1
  6
Continuous
 62
     3
100
AcDbLine
 10
714.3287982445112
 20
577.0004899999999
 30
0.0
 11
714.3287982445112
 21
595.847276034237
 31
0.0
  0
LINE
  5
26D
330
26A
100
AcDbEntity
  8
1
  6
Continuous
 62
     3
100
AcDbLine
 10
594.3287982445114
 20
626.9995119999999
 30
0.0
 11
594.3287982445114
 21
587.847276034237
 31
0.0
  0
SOLID
  5
26E
330
26A
100
AcDbEntity
  8
1
 62
     3
100
AcDbTrace
 10
707.3287982445112
 20
590.9257085511252
 30
0.0
 11
707.3287982445112
 21
592.7688435173487
 31
0.0
 12
714.3287982445112
 22
591.847276034237
 32
0.0
 13
714.3287982445112
 23
591.847276034237
 33
0.0
  0
SOLID
  5
26F
330
26A
100
AcDbEntity
  8
1
 62
     3
100
AcDbTrace
 10
601.3287982445114
 20
592.7688435173487
 30
0.0
 11
601.3287982445114
 21
590.9257085511252
 31
0.0
 12
594.3287982445114
 22
591.847276034237
 32
0.0
 13
594.3287982445114
 23
591.847276034237
 33
0.0
  0
MTEXT
  5
270
330
26A
100
AcDbEntity
  8
1
 62
     4
100
AcDbMText
 10
656.9966061164736
 20
595.847276034237
 30
0.0
 40
7.0
 41
0.0
 71
     7
 72
     1
  1
\C4;120\C3;\H4.2;\U+00b11
  7
CONVERTER_13
 11
0.9999999999970619
 21
2.424068405545306E-6
 31
0.0
 73
     1
 44
0.60024009603842
  0
ENDBLK
  5
272
330
26A
100
AcDbEntity
  8
0
100
AcDbBlockEnd
  0
BLOCK
  5
27C
330
275
100
AcDbEntity
  8
0
100
AcDbBlockBegin
  2
*D23
 70
     1
 71
     0
 10
0.0
 20
0.0
 30
0.0
  3
*D23
  1

  0
LINE
  5
276
330
275
100
AcDbEntity
  8
1
  6
Continuous
 62
     3
100
AcDbLine
 10
594.3287982445114
 20
592.0240945876229
 30
0.0
 11
165.8293982445115
 21
592.0240945876229
 31
0.0
  0
LINE
  5
277
330
275
100
AcDbEntity
  8
1
  6
Continuous
 62
     3
100
AcDbLine
 10
594.3287982445114
 20
626.9995119999999
 30
0.0
 11
594.3287982445114
 21
588.0240945876229
 31
0.0
  0
LINE
  5
278
330
275
100
AcDbEntity
  8
1
  6
Continuous
 62
     3
100
AcDbLine
 10
165.8293982445115
 20
626.9995119999999
 30
0.0
 11
165.8293982445115
 21
588.0240945876229
 31
0.0
  0
SOLID
  5
279
330
275
100
AcDbEntity
  8
1
 62
     3
100
AcDbTrace
 10
587.3287982445114
 20
591.1025271045112
 30
0.0
 11
587.3287982445114
 21
592.9456620707347
 31
0.0
 12
594.3287982445114
 22
592.0240945876229
 32
0.0
 13
594.3287982445114
 23
592.0240945876229
 33
0.0
  0
SOLID
  5
27A
330
275
100
AcDbEntity
  8
1
 62
     3
100
AcDbTrace
 10
172.8293982445115
 20
592.9456620707347
 30
0.0
 11
172.8293982445115
 21
591.1025271045112
 31
0.0
 12
165.8293982445115
 22
592.0240945876229
 32
0.0
 13
165.8293982445115
 23
592.0240945876229
 33
0.0
  0
MTEXT
  5
27B
330
275
100
AcDbEntity
  8
1
 62
     4
100
AcDbMText
 10
374.7507189525335
 20
596.0240945876229
 30
0.0
 40
7.0
 41
0.0
 71
     7
 72
     1
  1
\C4;428.5\C3;\H4.2;\U+00b10.2
  7
CONVERTER_13
 11
0.9999999999970619
 21
2.424068405545306E-6
 31
0.0
 73
     1
 44
0.60024009603842
  0
ENDBLK
  5
27D
330
275
100
AcDbEntity
  8
0
100
AcDbBlockEnd
  0
BLOCK
  5
47B
330
474
100
AcDbEntity
  8
0
100
AcDbBlockBegin
  2
*D24
 70
     1
 71
     0
 10
0.0
 20
0.0
 30
0.0
  3
*D24
  1

  0
LINE
  5
475
330
474
100
AcDbEntity
  8
1
  6
Continuous
 62
     3
100
AcDbLine
 10
-81.0933608502719
 20
397.6919202217657
 30
0.0
 11
-81.0933608502719
 21
477.6919202217667
 31
0.0
  0
LINE
  5
476
330
474
100
AcDbEntity
  8
1
  6
Continuous
 62
     3
100
AcDbLine
 10
-62.95526066898137
 20
477.6919202217667
 30
0.0
 11
-83.0933608502719
 21
477.6919202217667
 31
0.0
  0
LINE
  5
477
330
474
100
AcDbEntity
  8
1
  6
Continuous
 62
     3
100
AcDbLine
 10
-63.59932243213315
 20
397.6919202217657
 30
0.0
 11
-83.0933608502719
 21
397.6919202217657
 31
0.0
  0
SOLID
  5
478
330
474
100
AcDbEntity
  8
1
 62
     3
100
AcDbTrace
 10
-81.5541445918278
 20
401.1919202217657
 30
0.0
 11
-80.63257710871602
 21
401.1919202217657
 31
0.0
 12
-81.0933608502719
 22
397.6919202217657
 32
0.0
 13
-81.0933608502719
 23
397.6919202217657
 33
0.0
  0
SOLID
  5
479
330
474
100
AcDbEntity
  8
1
 62
     3
100
AcDbTrace
 10
-80.63257710871602
 20
474.1919202217667
 30
0.0
 11
-81.5541445918278
 21
474.1919202217667
 31
0.0
 12
-81.0933608502719
 22
477.6919202217667
 32
0.0
 13
-81.0933608502719
 23
477.6919202217667
 33
0.0
  0
MTEXT
  5
47A
330
474
100
AcDbEntity
  8
1
 62
     4
100
AcDbMText
 10
-83.0933608502719
 20
435.32755932969
 30
0.0
 40
3.5
 41
0.0
 71
     7
 72
     1
  1
80
  7
CONVERTER_13
 11
0.0
 21
1.0
 31
0.0
 73
     1
 44
0.60024009603842
  0
ENDBLK
  5
47C
330
474
100
AcDbEntity
  8
0
100
AcDbBlockEnd
  0
BLOCK
  5
486
330
47F
100
AcDbEntity
  8
0
100
AcDbBlockBegin
  2
*D25
 70
     1
 71
     0
 10
0.0
 20
0.0
 30
0.0
  3
*D25
  1

  0
LINE
  5
480
330
47F
100
AcDbEntity
  8
1
  6
Continuous
 62
     3
100
AcDbLine
 10
-81.0933608502719
 20
367.6919202217657
 30
0.0
 11
-81.0933608502719
 21
397.6919202217657
 31
0.0
  0
LINE
  5
481
330
47F
100
AcDbEntity
  8
1
  6
Continuous
 62
     3
100
AcDbLine
 10
-63.59932243213315
 20
397.6919202217657
 30
0.0
 11
-83.0933608502719
 21
397.6919202217657
 31
0.0
  0
LINE
  5
482
330
47F
100
AcDbEntity
  8
1
  6
Continuous
 62
     3
100
AcDbLine
 10
-63.59932243213315
 20
367.6919202217657
 30
0.0
 11
-83.0933608502719
 21
367.6919202217657
 31
0.0
  0
SOLID
  5
483
330
47F
100
AcDbEntity
  8
1
 62
     3
100
AcDbTrace
 10
-81.5541445918278
 20
371.1919202217657
 30
0.0
 11
-80.63257710871602
 21
371.1919202217657
 31
0.0
 12
-81.0933608502719
 22
367.6919202217657
 32
0.0
 13
-81.0933608502719
 23
367.6919202217657
 33
0.0
  0
SOLID
  5
484
330
47F
100
AcDbEntity
  8
1
 62
     3
100
AcDbTrace
 10
-80.63257710871602
 20
394.1919202217657
 30
0.0
 11
-81.5541445918278
 21
394.1919202217657
 31
0.0
 12
-81.0933608502719
 22
397.6919202217657
 32
0.0
 13
-81.0933608502719
 23
397.6919202217657
 33
0.0
  0
MTEXT
  5
485
330
47F
100
AcDbEntity
  8
1
 62
     4
100
AcDbMText
 10
-83.0933608502719
 20
379.146700427264
 30
0.0
 40
3.5
 41
0.0
 71
     7
 72
     1
  1
30
  7
CONVERTER_13
 11
0.0
 21
1.0
 31
0.0
 73
     1
 44
0.60024009603842
  0
ENDBLK
  5
487
330
47F
100
AcDbEntity
  8
0
100
AcDbBlockEnd
  0
BLOCK
  5
491
330
48A
100
AcDbEntity
  8
0
100
AcDbBlockBegin
  2
*D26
 70
     1
 71
     0
 10
0.0
 20
0.0
 30
0.0
  3
*D26
  1

  0
LINE
  5
48B
330
48A
100
AcDbEntity
  8
1
  6
Continuous
 62
     3
100
AcDbLine
 10
28.1674653917836
 20
397.6919202217657
 30
0.0
 11
28.1674653917836
 21
387.6919202217657
 31
0.0
  0
LINE
  5
48C
330
48A
100
AcDbEntity
  8
1
  6
Continuous
 62
     3
100
AcDbLine
 10
-27.25947229411359
 20
387.6919202217657
 30
0.0
 11
30.1674653917836
 21
387.6919202217657
 31
0.0
  0
LINE
  5
48D
330
48A
100
AcDbEntity
  8
1
  6
Continuous
 62
     3
100
AcDbLine
 10
-32.80976529411473
 20
397.6919202217657
 30
0.0
 11
30.1674653917836
 21
397.6919202217657
 31
0.0
  0
SOLID
  5
48E
330
48A
100
AcDbEntity
  8
1
 62
     3
100
AcDbTrace
 10
28.62824913333948
 20
394.1919202217657
 30
0.0
 11
27.70668165022771
 21
394.1919202217657
 31
0.0
 12
28.1674653917836
 22
397.6919202217657
 32
0.0
 13
28.1674653917836
 23
397.6919202217657
 33
0.0
  0
SOLID
  5
48F
330
48A
100
AcDbEntity
  8
1
 62
     3
100
AcDbTrace
 10
27.70668165022771
 20
391.1919202217657
 30
0.0
 11
28.62824913333949
 21
391.1919202217657
 31
0.0
 12
28.1674653917836
 22
387.6919202217657
 32
0.0
 13
28.1674653917836
 23
387.6919202217657
 33
0.0
  0
MTEXT
  5
490
330
48A
100
AcDbEntity
  8
1
 62
     4
100
AcDbMText
 10
26.1674653917836
 20
390.25121281798
 30
0.0
 40
3.5
 41
0.0
 71
     7
 72
     1
  1
10
  7
CONVERTER_13
 11
0.0
 21
1.0
 31
0.0
 73
     1
 44
0.60024009603842
  0
ENDBLK
  5
492
330
48A
100
AcDbEntity
  8
0
100
AcDbBlockEnd
  0
BLOCK
  5
49C
330
495
100
AcDbEntity
  8
0
100
AcDbBlockBegin
  2
*D27
 70
     1
 71
     0
 10
0.0
 20
0.0
 30
0.0
  3
*D27
  1

  0
LINE
  5
496
330
495
100
AcDbEntity
  8
1
  6
Continuous
 62
     3
100
AcDbLine
 10
37.77108057207305
 20
469.6919202217658
 30
0.0
 11
37.77108057207305
 21
425.6919202217658
 31
0.0
  0
LINE
  5
497
330
495
100
AcDbEntity
  8
1
  6
Continuous
 62
     3
100
AcDbLine
 10
-15.60800980159657
 20
469.6919202217658
 30
0.0
 11
39.77108057207305
 21
469.6919202217658
 31
0.0
  0
LINE
  5
498
330
495
100
AcDbEntity
  8
1
  6
Continuous
 62
     3
100
AcDbLine
 10
-15.60800980159657
 20
425.6919202217658
 30
0.0
 11
39.77108057207305
 21
425.6919202217658
 31
0.0
  0
SOLID
  5
499
330
495
100
AcDbEntity
  8
1
 62
     3
100
AcDbTrace
 10
38.23186431362894
 20
466.1919202217658
 30
0.0
 11
37.31029683051717
 21
466.1919202217658
 31
0.0
 12
37.77108057207305
 22
469.6919202217658
 32
0.0
 13
37.77108057207305
 23
469.6919202217658
 33
0.0
  0
SOLID
  5
49A
330
495
100
AcDbEntity
  8
1
 62
     3
100
AcDbTrace
 10
37.31029683051717
 20
429.1919202217658
 30
0.0
 11
38.23186431362894
 21
429.1919202217658
 31
0.0
 12
37.77108057207305
 22
425.6919202217658
 32
0.0
 13
37.77108057207305
 23
425.6919202217658
 33
0.0
  0
MTEXT
  5
49B
330
495
100
AcDbEntity
  8
1
 62
     4
100
AcDbMText
 10
35.77108057207305
 20
441.1228518386907
 30
0.0
 40
3.5
 41
0.0
 71
     7
 72
     1
  1
\C4;44\C3;\H2.1;\U+00b10.1
  7
CONVERTER_13
 11
0.0
 21
1.0
 31
0.0
 73
     1
 44
0.60024009603842
  0
ENDBLK
  5
49D
330
495
100
AcDbEntity
  8
0
100
AcDbBlockEnd
  0
BLOCK
  5
4A7
330
4A0
100
AcDbEntity
  8
0
100
AcDbBlockBegin
  2
*D28
 70
     1
 71
     0
 10
0.0
 20
0.0
 30
0.0
  3
*D28
  1

  0
LINE
  5
4A1
330
4A0
100
AcDbEntity
  8
1
  6
Continuous
 62
     3
100
AcDbLine
 10
37.77108057207305
 20
425.6919202217658
 30
0.0
 11
37.77108057207305
 21
387.6919202217658
 31
0.0
  0
LINE
  5
4A2
330
4A0
100
AcDbEntity
  8
1
  6
Continuous
 62
     3
100
AcDbLine
 10
-15.60800980159657
 20
425.6919202217658
 30
0.0
 11
39.77108057207305
 21
425.6919202217658
 31
0.0
  0
LINE
  5
4A3
330
4A0
100
AcDbEntity
  8
1
  6
Continuous
 62
     3
100
AcDbLine
 10
-27.25947229411359
 20
387.6919202217658
 30
0.0
 11
39.77108057207305
 21
387.6919202217658
 31
0.0
  0
SOLID
  5
4A4
330
4A0
100
AcDbEntity
  8
1
 62
     3
100
AcDbTrace
 10
38.23186431362894
 20
422.1919202217658
 30
0.0
 11
37.31029683051717
 21
422.1919202217658
 31
0.0
 12
37.77108057207305
 22
425.6919202217658
 32
0.0
 13
37.77108057207305
 23
425.6919202217658
 33
0.0
  0
SOLID
  5
4A5
330
4A0
100
AcDbEntity
  8
1
 62
     3
100
AcDbTrace
 10
37.31029683051717
 20
391.1919202217658
 30
0.0
 11
38.23186431362894
 21
391.1919202217658
 31
0.0
 12
37.77108057207305
 22
387.6919202217658
 32
0.0
 13
37.77108057207305
 23
387.6919202217658
 33
0.0
  0
MTEXT
  5
4A6
330
4A0
100
AcDbEntity
  8
1
 62
     4
100
AcDbMText
 10
35.77108057207305
 20
402.5735979610518
 30
0.0
 40
3.5
 41
0.0
 71
     7
 72
     1
  1
\C4;38\C3;\H2.1;\U+00b11
  7
CONVERTER_13
 11
0.0
 21
1.0
 31
0.0
 73
     1
 44
0.60024009603842
  0
ENDBLK
  5
4A8
330
4A0
100
AcDbEntity
  8
0
100
AcDbBlockEnd
  0
BLOCK
  5
4B2
330
4AB
100
AcDbEntity
  8
0
100
AcDbBlockBegin
  2
*D29
 70
     1
 71
     0
 10
0.0
 20
0.0
 30
0.0
  3
*D29
  1

  0
LINE
  5
4AC
330
4AB
100
AcDbEntity
  8
1
  6
Continuous
 62
     3
100
AcDbLine
 10
27.983673918672
 20
469.6919202217659
 30
0.0
 11
27.983673918672
 21
447.6919202217659
 31
0.0
  0
LINE
  5
4AD
330
4AB
100
AcDbEntity
  8
1
  6
Continuous
 62
     3
100
AcDbLine
 10
-15.60800980159658
 20
469.6919202217659
 30
0.0
 11
29.983673918672
 21
469.6919202217659
 31
0.0
  0
LINE
  5
4AE
330
4AB
100
AcDbEntity
  8
1
  6
Continuous
 62
     3
100
AcDbLine
 10
-15.60800980159658
 20
447.6919202217659
 30
0.0
 11
29.983673918672
 21
447.6919202217659
 31
0.0
  0
SOLID
  5
4AF
330
4AB
100
AcDbEntity
  8
1
 62
     3
100
AcDbTrace
 10
28.44445766022788
 20
466.1919202217659
 30
0.0
 11
27.52289017711611
 21
466.1919202217659
 31
0.0
 12
27.983673918672
 22
469.6919202217659
 32
0.0
 13
27.983673918672
 23
469.6919202217659
 33
0.0
  0
SOLID
  5
4B0
330
4AB
100
AcDbEntity
  8
1
 62
     3
100
AcDbTrace
 10
27.52289017711611
 20
451.1919202217659
 30
0.0
 11
28.44445766022789
 21
451.1919202217659
 31
0.0
 12
27.983673918672
 22
447.6919202217659
 32
0.0
 13
27.983673918672
 23
447.6919202217659
 33
0.0
  0
MTEXT
  5
4B1
330
4AB
100
AcDbEntity
  8
1
 62
     4
100
AcDbMText
 10
25.983673918672
 20
455.7707465003358
 30
0.0
 40
3.5
 41
0.0
 71
     7
 72
     1
  1
22
  7
CONVERTER_13
 11
0.0
 21
1.0
 31
0.0
 73
     1
 44
0.60024009603842
  0
ENDBLK
  5
4B3
330
4AB
100
AcDbEntity
  8
0
100
AcDbBlockEnd
  0
BLOCK
  5
4BD
330
4B6
100
AcDbEntity
  8
0
100
AcDbBlockBegin
  2
*D30
 70
     1
 71
     0
 10
0.0
 20
0.0
 30
0.0
  3
*D30
  1

  0
LINE
  5
4B7
330
4B6
100
AcDbEntity
  8
1
  6
Continuous
 62
     3
100
AcDbLine
 10
-65.80976529411473
 20
355.76824332955
 30
0.0
 11
-32.80976529411473
 21
355.76824332955
 31
0.0
  0
LINE
  5
4B8
330
4B6
100
AcDbEntity
  8
1
  6
Continuous
 62
     3
100
AcDbLine
 10
-32.80976529411473
 20
367.6919202217657
 30
0.0
 11
-32.80976529411473
 21
353.76824332955
 31
0.0
  0
LINE
  5
4B9
330
4B6
100
AcDbEntity
  8
1
  6
Continuous
 62
     3
100
AcDbLine
 10
-65.80976529411473
 20
382.6919202217657
 30
0.0
 11
-65.80976529411473
 21
353.76824332955
 31
0.0
  0
SOLID
  5
4BA
330
4B6
100
AcDbEntity
  8
1
 62
     3
100
AcDbTrace
 10
-62.30976529411473
 20
356.2290270711059
 30
0.0
 11
-62.30976529411473
 21
355.3074595879941
 31
0.0
 12
-65.80976529411473
 22
355.76824332955
 32
0.0
 13
-65.80976529411473
 23
355.76824332955
 33
0.0
  0
SOLID
  5
4BB
330
4B6
100
AcDbEntity
  8
1
 62
     3
100
AcDbTrace
 10
-36.30976529411473
 20
355.3074595879941
 30
0.0
 11
-36.30976529411473
 21
356.2290270711059
 31
0.0
 12
-32.80976529411473
 22
355.76824332955
 32
0.0
 13
-32.80976529411473
 23
355.76824332955
 33
0.0
  0
MTEXT
  5
4BC
330
4B6
100
AcDbEntity
  8
1
 62
     4
100
AcDbMText
 10
-51.3520944129982
 20
357.76824332955
 30
0.0
 40
3.5
 41
0.0
 71
     7
 72
     1
  1
33
  7
CONVERTER_13
 11
0.9999999999970619
 21
2.424068405545306E-6
 31
0.0
 73
     1
 44
0.60024009603842
  0
ENDBLK
  5
4BE
330
4B6
100
AcDbEntity
  8
0
100
AcDbBlockEnd
  0
BLOCK
  5
4C7
330
4C0
100
AcDbEntity
  8
0
100
AcDbBlockBegin
  2
*D31
 70
     1
 71
     0
 10
0.0
 20
0.0
 30
0.0
  3
*D31
  1

  0
LINE
  5
4C1
330
4C0
100
AcDbEntity
  8
1
  6
Continuous
 62
     3
100
AcDbLine
 10
-68.70700350611904
 20
492.011661907702
 30
0.0
 11
-32.80976529411473
 21
492.011661907702
 31
0.0
  0
LINE
  5
4C2
330
4C0
100
AcDbEntity
  8
1
  6
Continuous
 62
     3
100
AcDbLine
 10
-68.70700350611904
 20
447.7346767946295
 30
0.0
 11
-68.70700350611904
 21
494.011661907702
 31
0.0
  0
LINE
  5
4C3
330
4C0
100
AcDbEntity
  8
1
  6
Continuous
 62
     3
100
AcDbLine
 10
-32.80976529411473
 20
472.5919202217658
 30
0.0
 11
-32.80976529411473
 21
494.011661907702
 31
0.0
  0
SOLID
  5
4C4
330
4C0
100
AcDbEntity
  8
1
 62
     3
100
AcDbTrace
 10
-65.20700350611904
 20
492.4724456492578
 30
0.0
 11
-65.20700350611904
 21
491.5508781661461
 31
0.0
 12
-68.70700350611904
 22
492.011661907702
 32
0.0
 13
-68.70700350611904
 23
492.011661907702
 33
0.0
  0
SOLID
  5
4C5
330
4C0
100
AcDbEntity
  8
1
 62
     3
100
AcDbTrace
 10
-36.30976529411473
 20
491.5508781661461
 30
0.0
 11
-36.30976529411473
 21
492.4724456492578
 31
0.0
 12
-32.80976529411473
 22
492.011661907702
 32
0.0
 13
-32.80976529411473
 23
492.011661907702
 33
0.0
  0
MTEXT
  5
4C6
330
4C0
100
AcDbEntity
  8
1
 62
     4
100
AcDbMText
 10
-51.3193284857391
 20
494.011661907702
 30
0.0
 40
3.5
 41
0.0
 71
     7
 72
     1
  1
36
  7
CONVERTER_13
 11
0.9999999999970619
 21
2.424068405545306E-6
 31
0.0
 73
     1
 44
0.60024009603842
  0
ENDBLK
  5
4C8
330
4C0
100
AcDbEntity
  8
0
100
AcDbBlockEnd
  0
ENDSEC
  0
SECTION
  2
ENTITIES
  0
INSERT
  5
5B
330
1F
100
AcDbEntity
  8
1
100
AcDbBlockReference
  2
Vorderansicht
 10
17.753109223171
 20
730.96164246072
 30
0.0
 41
0.5
 42
0.5
 43
0.5
  0
INSERT
  5
5C
330
1F
100
AcDbEntity
  8
0
100
AcDbBlockReference
  2
rahmen
 10
-179.289113764188
 20
124.793329709917
 30
0.0
  0
INSERT
  5
5D
330
1F
100
AcDbEntity
  8
0
100
AcDbBlockReference
  2
Diagramm
 10
590.186966615906
 20
-380.604396123123
 30
0.0
  0
INSERT
  5
5E
330
1F
100
AcDbEntity
  8
1
100
AcDbBlockReference
  2
Schnitt
 10
-69.1786818220176
 20
303.993923411924
 30
0.0
  0
LINE
  5
4D2
330
1F
100
AcDbEntity
  8
1
  6
Continuous
 62
     1
100
AcDbLine
 10
318.710886235812
 20
167.793329709917
 30
0.0
 11
450.7108862358119
 21
167.793329709917
 31
0.0
  0
LINE
  5
4D3
330
1F
100
AcDbEntity
  8
0
  6
Continuous
 62
     1
100
AcDbLine
 10
331.1109185922286
 20
167.793329709917
 30
0.0
 11
331.1109705071547
 21
193.7932819648907
 31
0.0
  0
LINE
  5
4D4
330
1F
100
AcDbEntity
  8
0
  6
Continuous
 62
     1
100
AcDbLine
 10
346.1109185922286
 20
167.793329709917
 30
0.0
 11
346.1109625276904
 21
193.7932011066202
 31
0.0
  0
LINE
  5
4D5
330
1F
100
AcDbEntity
  8
0
  6
Continuous
 62
     1
100
AcDbLine
 10
318.710947235812
 20
193.793329709882
 30
0.0
 11
450.7108862358119
 21
193.7928407098819
 31
0.0
  0
LINE
  5
4D6
330
1F
100
AcDbEntity
  8
1
  6
Continuous
 62
     1
100
AcDbLine
 10
318.710886235812
 20
167.793329709917
 30
0.0
 11
318.7109381508001
 21
193.793329709917
 31
0.0
  0
LINE
  5
4D7
330
1F
100
AcDbEntity
  8
0
  6
Continuous
 62
     1
100
AcDbLine
 10
318.710886235812
 20
185.793329709917
 30
0.0
 11
450.710886235812
 21
185.793329709917
 31
0.0
  0
LINE
  5
4D8
330
1F
100
AcDbEntity
  8
0
  6
Continuous
 62
     1
100
AcDbLine
 10
318.710886235812
 20
177.793329709917
 30
0.0
 11
450.710886235812
 21
177.793329709917
 31
0.0
  0
LINE
  5
4D9
330
1F
100
AcDbEntity
  8
1
  6
Continuous
 62
     1
100
AcDbLine
 10
450.7108862358119
 20
193.7928407098819
 30
0.0
 11
450.7108862358119
 21
167.793329709917
 31
0.0
  0
TEXT
  5
4DA
330
1F
100
AcDbEntity
  8
0
 62
     4
100
AcDbText
 10
332.7109185922286
 20
172.821585730378
 30
0.0
 40
3.0
  1
Anzahl
 41
0.72
  7
CONVERTER_15
100
AcDbText
  0
TEXT
  5
4DB
330
1F
100
AcDbEntity
  8
0
 62
     4
100
AcDbText
 10
320.1109185922286
 20
171.072092133663
 30
0.0
 40
3.0
  1
Pos.
 41
0.9
  7
CONVERTER_13
100
AcDbText
  0
TEXT
  5
4DD
330
1F
100
AcDbEntity
  8
0
 62
     3
100
AcDbText
 10
323.8728514658684
 20
187.9932557150848
 30
0.0
 40
3.5
  1
2
 41
1.045
  7
CONVERTER_20
100
AcDbText
  0
TEXT
  5
4DE
330
1F
100
AcDbEntity
  8
0
 62
     3
100
AcDbText
 10
337.7846539448416
 20
188.1708651330031
 30
0.0
 40
3.5
  1
1
 41
1.045
  7
CONVERTER_20
100
AcDbText
  0
TEXT
  5
4DF
330
1F
100
AcDbEntity
  8
0
 62
     3
100
AcDbText
 10
337.7846539448416
 20
180.1710854589825
 30
0.0
 40
3.5
  1
1
 41
1.045
  7
CONVERTER_20
100
AcDbText
  0
TEXT
  5
4E0
330
1F
100
AcDbEntity
  8
0
 62
     3
100
AcDbText
 10
323.8728514658684
 20
179.993476041064
 30
0.0
 40
3.5
  1
1
 41
1.045
  7
CONVERTER_20
100
AcDbText
  0
TEXT
  5
4E1
330
1F
100
AcDbEntity
  8
0
 62
     4
100
AcDbText
 10
348.1109185922285
 20
188.0429873839377
 30
0.0
 40
3.5
  1
T-Stop-Gleitschiene
 41
0.9
  7
CONVERTER_13
100
AcDbText
  0
TEXT
  5
4E2
330
1F
100
AcDbEntity
  8
0
 62
     4
100
AcDbText
 10
348.9109185922285
 20
180.0432077099169
 30
0.0
 40
3.5
  1
Drehlager
 41
0.9
  7
CONVERTER_13
100
AcDbText
  0
TEXT
  5
4E3
330
1F
100
AcDbEntity
  8
1
 62
     3
100
AcDbText
 10
332.4283092725739
 20
169.584435177717
 30
0.0
 40
2.5
  1
quantity
 41
0.72
  7
CONVERTER_15
100
AcDbText
  0
TEXT
  5
4E4
330
1F
100
AcDbEntity
  8
0
 62
     4
100
AcDbText
 10
348.9425122782919
 20
171.043329709917
 30
0.0
 40
3.0
  1
Bezeichnung
 41
0.9
  7
CONVERTER_13
100
AcDbText
  0
TEXT
  5
4E5
330
1F
100
AcDbEntity
  8
1
 62
     3
100
AcDbText
 10
377.5282647166109
 20
171.043329709917
 30
0.0
 40
2.5
  1
/designation
 41
0.9
  7
CONVERTER_13
100
AcDbText
  0
TEXT
  5
4E6
330
1F
100
AcDbEntity
  8
1
 62
     3
100
AcDbText
 10
400.687102858158
 20
188.0429873839377
 30
0.0
 40
2.5
  1
/T-STOP Guide rail
 41
0.9
  7
CONVERTER_13
100
AcDbText
  0
TEXT
  5
4E7
330
1F
100
AcDbEntity
  8
1
 62
     3
100
AcDbText
 10
374.4596199462139
 20
180.0432077099169
 30
0.0
 40
2.5
  1
/Pivot bearing
 41
0.9
  7
CONVERTER_13
100
AcDbText
  0
TEXT
  5
4E8
330
1F
100
AcDbEntity
  8
1
 62
     1
100
AcDbText
 10
-13.3038943621002
 20
490.689202729853
 30
0.0
 40
5.0
  1
1:1
 41
0.9
  7
CONVERTER_13
100
AcDbText
  0
TEXT
  5
4E9
330
1F
100
AcDbEntity
  8
1
 62
     1
100
AcDbText
 10
297.8961056378998
 20
502.4892027298531
 30
0.0
 40
5.0
  1
1:2
 41
0.9
  7
CONVERTER_13
100
AcDbText
  0
ENDSEC
  0
SECTION
  2
OBJECTS
  0
DICTIONARY
  5
C
330
0
100
AcDbDictionary
281
     1
  3
ACAD_GROUP
350
D
  3
ACAD_LAYOUT
350
1A
  3
ACAD_MLINESTYLE
350
17
  3
ACAD_PLOTSETTINGS
350
19
  3
ACAD_PLOTSTYLENAME
350
E
  3
ACAD_TABLESTYLE
350
4EA
  3
ACAD_VISUALSTYLE
350
2A
  0
DICTIONARY
  5
D
102
{ACAD_REACTORS
330
C
102
}
330
C
100
AcDbDictionary
281
     1
  0
DICTIONARY
  5
1A
102
{ACAD_REACTORS
330
C
102
}
330
C
100
AcDbDictionary
281
     1
  3
Layout1
350
1E
  3
Layout2
350
26
  3
Model
350
22
  0
DICTIONARY
  5
17
102
{ACAD_REACTORS
330
C
102
}
330
C
100
AcDbDictionary
281
     1
  3
Standard
350
18
  0
DICTIONARY
  5
19
102
{ACAD_REACTORS
330
C
102
}
330
C
100
AcDbDictionary
281
     1
  0
ACDBDICTIONARYWDFLT
  5
E
102
{ACAD_REACTORS
330
C
102
}
330
C
100
AcDbDictionary
281
     1
  3
Normal
350
F
100
AcDbDictionaryWithDefault
340
F
  0
DICTIONARY
  5
4EA
102
{ACAD_REACTORS
330
C
102
}
330
C
100
AcDbDictionary
281
     1
  0
DICTIONARY
  5
2A
102
{ACAD_REACTORS
330
C
102
}
330
C
100
AcDbDictionary
281
     1
  3
2dWireframe
350
2F
  3
3D Hidden
350
31
  3
3dWireframe
350
30
  3
Basic
350
32
  3
Brighten
350
36
  3
ColorChange
350
3A
  3
Conceptual
350
34
  3
Dim
350
35
  3
Facepattern
350
39
  3
Flat
350
2B
  3
FlatWithEdges
350
2C
  3
Gouraud
350
2D
  3
GouraudWithEdges
350
2E
  3
Linepattern
350
38
  3
Realistic
350
33
  3
Thicken
350
37
  0
LAYOUT
  5
1E
102
{ACAD_REACTORS
330
1A
102
}
330
1A
100
AcDbPlotSettings
  1

  2
none_device
  4

  6

 40
0.0
 41
0.0
 42
0.0
 43
0.0
 44
0.0
 45
0.0
 46
0.0
 47
0.0
 48
0.0
 49
0.0
140
0.0
141
0.0
142
1.0
143
1.0
 70
   688
 72
     0
 73
     0
 74
     5
  7

 75
    16
147
1.0
148
0.0
149
0.0
100
AcDbLayout
  1
Layout1
 70
     1
 71
     1
 10
0.0
 20
0.0
 11
12.0
 21
9.0
 12
0.0
 22
0.0
 32
0.0
 14
1.00000000000000E+20
 24
1.00000000000000E+20
 34
1.00000000000000E+20
 15
-1.00000000000000E+20
 25
-1.00000000000000E+20
 35
-1.00000000000000E+20
146
0.0
 13
0.0
 23
0.0
 33
0.0
 16
1.0
 26
0.0
 36
0.0
 17
0.0
 27
1.0
 37
0.0
 76
     0
330
1B
  0
LAYOUT
  5
26
102
{ACAD_REACTORS
330
1A
102
}
330
1A
100
AcDbPlotSettings
  1

  2
none_device
  4

  6

 40
0.0
 41
0.0
 42
0.0
 43
0.0
 44
0.0
 45
0.0
 46
0.0
 47
0.0
 48
0.0
 49
0.0
140
0.0
141
0.0
142
1.0
143
1.0
 70
   688
 72
     0
 73
     0
 74
     5
  7

 75
    16
147
1.0
148
0.0
149
0.0
100
AcDbLayout
  1
Layout2
 70
     1
 71
     2
 10
0.0
 20
0.0
 11
0.0
 21
0.0
 12
0.0
 22
0.0
 32
0.0
 14
0.0
 24
0.0
 34
0.0
 15
0.0
 25
0.0
 35
0.0
146
0.0
 13
0.0
 23
0.0
 33
0.0
 16
1.0
 26
0.0
 36
0.0
 17
0.0
 27
1.0
 37
0.0
 76
     0
330
23
  0
LAYOUT
  5
22
102
{ACAD_REACTORS
330
1A
102
}
330
1A
100
AcDbPlotSettings
  1

  2
none_device
  4

  6

 40
0.0
 41
0.0
 42
0.0
 43
0.0
 44
0.0
 45
0.0
 46
0.0
 47
0.0
 48
0.0
 49
0.0
140
0.0
141
0.0
142
1.0
143
1.0
 70
  1712
 72
     0
 73
     0
 74
     0
  7

 75
     0
147
1.0
148
0.0
149
0.0
100
AcDbLayout
  1
Model
 70
     1
 71
     0
 10
0.0
 20
0.0
 11
12.0
 21
9.0
 12
0.0
 22
0.0
 32
0.0
 14
-133.289113764188
 24
124.793329709917
 34
0.0
 15
450.710886235812
 25
534.793329709917
 35
0.0
146
0.0
 13
0.0
 23
0.0
 33
0.0
 16
1.0
 26
0.0
 36
0.0
 17
0.0
 27
1.0
 37
0.0
 76
     0
330
1F
331
29
  0
MLINESTYLE
  5
18
102
{ACAD_REACTORS
330
17
102
}
330
17
100
AcDbMlineStyle
  2
Standard
 70
     0
  3

 62
   256
 51
90.0
 52
90.0
 71
     2
 49
0.5
 62
   256
  6
BYLAYER
 49
-0.5
 62
   256
  6
BYLAYER
  0
ACDBPLACEHOLDER
  5
F
102
{ACAD_REACTORS
330
E
102
}
330
E
  0
VISUALSTYLE
  5
2F
102
{ACAD_REACTORS
330
2A
102
}
330
2A
100
AcDbVisualStyle
  2
2dWireframe
 70
     4
 71
     0
 72
     2
 73
     0
 90
        0
 40
-0.6
 41
-30.0
 62
     5
 63
     7
 74
     1
 91
        4
 64
     7
 65
   257
 75
     1
175
     1
 42
1.0
 92
        0
 66
   257
 43
1.0
 76
     1
 77
     6
 78
     2
 67
     7
 79
     5
170
     0
171
     0
290
     0
174
     0
 93
        1
 44
0.0
173
     0
291
     0
 45
0.0
1001
ACAD
1000
AcDbSavedByObjectVersion
1070
     0
  0
VISUALSTYLE
  5
31
102
{ACAD_REACTORS
330
2A
102
}
330
2A
100
AcDbVisualStyle
  2
3D Hidden
 70
     6
 71
     1
 72
     2
 73
     2
 90
        0
 40
-0.6
 41
-30.0
 62
     5
 63
     7
 74
     2
 91
        2
 64
     7
 65
   257
 75
     2
175
     1
 42
40.0
 92
        0
 66
   257
 43
1.0
 76
     1
 77
     6
 78
     2
 67
     7
 79
     3
170
     0
171
     0
290
     0
174
     0
 93
        1
 44
0.0
173
     0
291
     0
 45
0.0
1001
ACAD
1000
AcDbSavedByObjectVersion
1070
     0
  0
VISUALSTYLE
  5
30
102
{ACAD_REACTORS
330
2A
102
}
330
2A
100
AcDbVisualStyle
  2
3dWireframe
 70
     5
 71
     0
 72
     2
 73
     0
 90
        0
 40
-0.6
 41
-30.0
 62
     5
 63
     7
 74
     1
 91
        4
 64
     7
 65
   257
 75
     1
175
     1
 42
1.0
 92
        0
 66
   257
 43
1.0
 76
     1
 77
     6
 78
     2
 67
     7
 79
     5
170
     0
171
     0
290
     0
174
     0
 93
        1
 44
0.0
173
     0
291
     0
 45
0.0
1001
ACAD
1000
AcDbSavedByObjectVersion
1070
     0
  0
VISUALSTYLE
  5
32
102
{ACAD_REACTORS
330
2A
102
}
330
2A
100
AcDbVisualStyle
  2
Basic
 70
     7
 71
     1
 72
     0
 73
     1
 90
        0
 40
-0.6
 41
-30.0
 62
     5
 63
     7
 74
     0
 91
        4
 64
     7
 65
   257
 75
     1
175
     1
 42
1.0
 92
        8
 66
     7
 43
1.0
 76
     1
 77
     6
 78
     2
 67
     7
 79
     5
170
     0
171
     0
290
     0
174
     0
 93
        1
 44
0.0
173
     0
291
     1
 45
0.0
1001
ACAD
1000
AcDbSavedByObjectVersion
1070
     0
  0
VISUALSTYLE
  5
36
102
{ACAD_REACTORS
330
2A
102
}
330
2A
100
AcDbVisualStyle
  2
Brighten
 70
    12
 71
     2
 72
     2
 73
     0
 90
        0
 40
-0.6
 41
-30.0
 62
     5
 63
     7
 74
     1
 91
        4
 64
     7
 65
   257
 75
     1
175
     1
 42
1.0
 92
        8
 66
     7
 43
1.0
 76
     1
 77
     6
 78
     2
 67
     7
 79
     5
170
     0
171
     0
290
     0
174
     0
 93
        1
 44
50.0
173
     0
291
     1
 45
0.0
1001
ACAD
1000
AcDbSavedByObjectVersion
1070
     0
  0
VISUALSTYLE
  5
3A
102
{ACAD_REACTORS
330
2A
102
}
330
2A
100
AcDbVisualStyle
  2
ColorChange
 70
    16
 71
     2
 72
     2
 73
     3
 90
        0
 40
-0.6
 41
-30.0
 62
     5
 63
     8
 74
     1
 91
        4
 64
     7
 65
   257
 75
     1
175
     1
 42
1.0
 92
        8
 66
     8
 43
1.0
 76
     1
 77
     6
 78
     2
 67
     7
 79
     5
170
     0
171
     0
290
     0
174
     0
 93
        1
 44
0.0
173
     0
291
     1
 45
0.0
1001
ACAD
1000
AcDbSavedByObjectVersion
1070
     0
  0
VISUALSTYLE
  5
34
102
{ACAD_REACTORS
330
2A
102
}
330
2A
100
AcDbVisualStyle
  2
Conceptual
 70
     9
 71
     3
 72
     2
 73
     0
 90
        0
 40
-0.6
 41
-30.0
 62
     5
 63
     7
 74
     2
 91
        2
 64
     7
 65
   257
 75
     1
175
     1
 42
40.0
 92
        8
 66
     7
 43
1.0
 76
     1
 77
     6
 78
     2
 67
     7
 79
     3
170
     0
171
     0
290
     0
174
     0
 93
        1
 44
0.0
173
     0
291
     0
 45
0.0
1001
ACAD
1000
AcDbSavedByObjectVersion
1070
     0
  0
VISUALSTYLE
  5
35
102
{ACAD_REACTORS
330
2A
102
}
330
2A
100
AcDbVisualStyle
  2
Dim
 70
    11
 71
     2
 72
     2
 73
     0
 90
        0
 40
-0.6
 41
-30.0
 62
     5
 63
     7
 74
     1
 91
        4
 64
     7
 65
   257
 75
     1
175
     1
 42
1.0
 92
        8
 66
     7
 43
1.0
 76
     1
 77
     6
 78
     2
 67
     7
 79
     5
170
     0
171
     0
290
     0
174
     0
 93
        1
 44
-50.0
173
     0
291
     1
 45
0.0
1001
ACAD
1000
AcDbSavedByObjectVersion
1070
     0
  0
VISUALSTYLE
  5
39
102
{ACAD_REACTORS
330
2A
102
}
330
2A
100
AcDbVisualStyle
  2
Facepattern
 70
    15
 71
     2
 72
     2
 73
     0
 90
        0
 40
-0.6
 41
-30.0
 62
     5
 63
     7
 74
     1
 91
        4
 64
     7
 65
   257
 75
     1
175
     1
 42
1.0
 92
        8
 66
     7
 43
1.0
 76
     1
 77
     6
 78
     2
 67
     7
 79
     5
170
     0
171
     0
290
     0
174
     0
 93
        1
 44
0.0
173
     0
291
     1
 45
0.0
1001
ACAD
1000
AcDbSavedByObjectVersion
1070
     0
  0
VISUALSTYLE
  5
2B
102
{ACAD_REACTORS
330
2A
102
}
330
2A
100
AcDbVisualStyle
  2
Flat
 70
     0
 71
     2
 72
     1
 73
     1
 90
        2
 40
-0.6
 41
30.0
 62
     5
 63
     7
 74
     0
 91
        4
 64
     7
 65
   257
 75
     1
175
     1
 42
1.0
 92
        8
 66
     7
 43
1.0
 76
     1
 77
     6
 78
     2
 67
     7
 79
     5
170
     0
171
     0
290
     0
174
     0
 93
       13
 44
0.0
173
     0
291
     1
 45
0.0
1001
ACAD
1000
AcDbSavedByObjectVersion
1070
     0
  0
VISUALSTYLE
  5
2C
102
{ACAD_REACTORS
330
2A
102
}
330
2A
100
AcDbVisualStyle
  2
FlatWithEdges
 70
     1
 71
     2
 72
     1
 73
     1
 90
        2
 40
-0.6
 41
30.0
 62
     5
 63
     7
 74
     1
 91
        4
 64
     7
 65
   257
 75
     1
175
     1
 42
1.0
 92
        0
 66
   257
 43
1.0
 76
     1
 77
     6
 78
     2
 67
     7
 79
     5
170
     0
171
     0
290
     0
174
     0
 93
       13
 44
0.0
173
     0
291
     1
 45
0.0
1001
ACAD
1000
AcDbSavedByObjectVersion
1070
     0
  0
VISUALSTYLE
  5
2D
102
{ACAD_REACTORS
330
2A
102
}
330
2A
100
AcDbVisualStyle
  2
Gouraud
 70
     2
 71
     2
 72
     2
 73
     1
 90
        2
 40
-0.6
 41
30.0
 62
     5
 63
     7
 74
     0
 91
        4
 64
     7
 65
   257
 75
     1
175
     1
 42
1.0
 92
        0
 66
     7
 43
1.0
 76
     1
 77
     6
 78
     2
 67
     7
 79
     5
170
     0
171
     0
290
     0
174
     0
 93
       13
 44
0.0
173
     0
291
     1
 45
0.0
1001
ACAD
1000
AcDbSavedByObjectVersion
1070
     0
  0
VISUALSTYLE
  5
2E
102
{ACAD_REACTORS
330
2A
102
}
330
2A
100
AcDbVisualStyle
  2
GouraudWithEdges
 70
     3
 71
     2
 72
     2
 73
     1
 90
        2
 40
-0.6
 41
30.0
 62
     5
 63
     7
 74
     1
 91
        4
 64
     7
 65
   257
 75
     1
175
     1
 42
1.0
 92
        0
 66
   257
 43
1.0
 76
     1
 77
     6
 78
     2
 67
     7
 79
     5
170
     0
171
     0
290
     0
174
     0
 93
       13
 44
0.0
173
     0
291
     1
 45
0.0
1001
ACAD
1000
AcDbSavedByObjectVersion
1070
     0
  0
VISUALSTYLE
  5
38
102
{ACAD_REACTORS
330
2A
102
}
330
2A
100
AcDbVisualStyle
  2
Linepattern
 70
    14
 71
     2
 72
     2
 73
     0
 90
        0
 40
-0.6
 41
-30.0
 62
     5
 63
     7
 74
     1
 91
        4
 64
     7
 65
   257
 75
     7
175
     7
 42
1.0
 92
        8
 66
     7
 43
1.0
 76
     1
 77
     6
 78
     2
 67
     7
 79
     5
170
     0
171
     0
290
     0
174
     0
 93
        1
 44
0.0
173
     0
291
     1
 45
0.0
1001
ACAD
1000
AcDbSavedByObjectVersion
1070
     0
  0
VISUALSTYLE
  5
33
102
{ACAD_REACTORS
330
2A
102
}
330
2A
100
AcDbVisualStyle
  2
Realistic
 70
     8
 71
     2
 72
     2
 73
     0
 90
        0
 40
-0.6
 41
-30.0
 62
     5
 63
     7
 74
     1
 91
        0
 64
     7
 65
   257
 75
     1
175
     1
 42
1.0
 92
        8
 66
     8
 43
1.0
 76
     1
 77
     6
 78
     2
 67
     7
 79
     5
170
     0
171
     0
290
     0
174
     0
 93
       13
 44
0.0
173
     0
291
     0
 45
0.0
1001
ACAD
1000
AcDbSavedByObjectVersion
1070
     0
  0
VISUALSTYLE
  5
37
102
{ACAD_REACTORS
330
2A
102
}
330
2A
100
AcDbVisualStyle
  2
Thicken
 70
    13
 71
     2
 72
     2
 73
     0
 90
        0
 40
-0.6
 41
-30.0
 62
     5
 63
     7
 74
     1
 91
        4
 64
     7
 65
   257
 75
     1
175
     1
 42
1.0
 92
       12
 66
     7
 43
1.0
 76
     1
 77
     6
 78
     2
 67
     7
 79
     5
170
     0
171
     0
290
     0
174
     0
 93
        1
 44
0.0
173
     0
291
     1
 45
0.0
1001
ACAD
1000
AcDbSavedByObjectVersion
1070
     0
  0
ENDSEC
  0
EOF
